BASIC
ADVANCED
EXPERT
{4},,
{4}53,64,7,75, 64,53,2,42,
{4}53,64,75,64, {8}3,3,4,,51,,,,
{8}6,6,5,,43,,43,, 3,3,4,,52,,43,,
{8}2,2,1,,7,7,8,, {4}61,72,83,7bx/2bx,
{8}6,6,4,5,3,3,43,, {4}2,2,43,43,
{8}3,3,5,4,6,6,65,, {4}7,7,65,65,
{8}2,2,4,3,5,5,54,, {4}6,6,78,12,
{4}43,43,64,53, 72,72,6b/3b,,
{4}7h[4:3]/5,5,4,5, 3h[4:3]/4,4,5,4,
{4}3h[4:1],4h[4:1],5h[4:1],6, 6h[4:1],5h[4:1],4h[4:1],3,
{4}4/2h[2:1],5,4,53, 6h[2:1]/4,3,4,73,
{4}82,82,1h[4:1],4, 53,53,6x/4x,,
{4}6h[4:3]/5,5,7,5, 4/3h[4:3],4,2,4,
{4}4/2h[4:1],1h[4:1],8h[4:1],7, 6/5h[4:1],4h[4:1],3h[4:1],4,
{4}4h[4:1]/2h[4:1],,6h[4:1]/4h[4:1],, 5h[4:1]/3h[4:1],,64,64,
{4}4h[8:1]/3h[8:1],4h[8:1]/3h[8:1],5h[8:1]/4h[8:1],5h[8:1]/4h[8:1], 6h[8:1]/5h[8:1],6h[8:1]/5h[8:1],7b/4b,,
{4}8<4[4:2],,,, B3,E6/B5,E8/B7/B8,,
{4}1>5[4:2],,,, B7,B1/B2,B5/E5/B4,,
{4}7h[4:3]/8,1,2,3, 3h[2:1],4,5,6,
{8}2,2,7,7,1,1,8,8, 8bx/1bx,,63,,71,7-4[8:2]*-3[8:2]/1,,,
{8},,,, 2,2h[8:2],,3, ,1,1h[4:1],, 8,,78,,
{8}65,,65,,3,3h[8:2],,4, ,4x/3x,4x/3x,,64,6-2[8:2]*-1[8:2]/4,,,
{8},,,, 3,3h[8:2],,4, ,5,5h[4:1],, 6,,65,,
{8}78,,78,,1,1h[8:2],,8, ,7x/2x,7x/2x,,82,8/2-6[8:2]*-5[8:2],,,
{8},,,, 7,7h[8:2],,6, ,5,5h[4:1],, 4,,42,,
{4}12,12,53,64, 71,82,71,82,
{4}1-5[8:1]/2-4[8:1],,7-5[8:1]/8-4[8:1],, 1-5[8:1]/2-4[8:1],,63,63,
{8}6h[4:1],,8h[4:1],,1h[4:1],,3,3, ,7bx/2bx,7bx/2bx,,{16}8x,1x,8x,1x,8bx,,,,
{8}63,,54,,6,6,65,, {4}7,7,78,12,
{8}3,3,5,4,6,6,65,, {4}7,7,65,43,
{8}2,2,4,3,5,5,54,, {4}42,42,53,64,
{4}6h[8:1]/5h[8:1],7h[8:1]/6h[8:1],7h[8:1]/8h[8:1],8h[8:1]/1h[8:1], {8}72,,6bx/3bx,,82,8/2-6[8:2]*-5[8:2],,,
{8},,,, 7,7h[8:2],,6, ,5,5h[4:1],, 4,,43,,
{8}12,,12,,8,8h[8:2],,1, ,72,72,,64,,53,,
{4}1-5[8:1]/2-4[8:1],,7-5[8:1]/8-4[8:1],, 1-5[8:1]/2-4[8:1],,72,63,
{8}3h[4:1],,1h[4:1],,8h[4:1],,6,6, ,7bx/2bx,7bx/2bx,,{16}1,8,1,8,1w5[4:1],,,,
{1},,,,E
MASTER
(180)
{2},,,{16}4,5,4,,{4}36,
{4}2h[8:1]/4h[8:1],3h[8:1]/4h[8:1],5h[8:1]/7h[8:1],5h[8:1]/6h[8:1],2h[8:1]/4h[8:1],3h[8:1]/4h[8:1],5h[8:1]/6h[8:1],4h[8:1]/7h[8:1],
{8}8,8qq4[4:2],,3,3,,{4}1-5[8:1],6-8[8:1],2-4[8:1],5,26,
{8}7<5[8:1],7,4,3,2>4[8:1],2,6,7,8<6[8:1],8,3,2,1>3[8:1],1,8q1[8:3],8,
{4}1x,,2x/7x,1-5[8:1]/8-4[8:1],1-3[8:1]/8-6[8:1],1-5[8:1]/8-4[8:1],18,2b/7b,
{8}6-1[8:1],6,3-8[8:1],3,5,5,4V25-1[8:3],4,6x,6x,7x,7x,8,8,17,,
{8}2>5[8:1],2,6<1[8:1],6,4,4,8<5[8:1],8,1,2,3,4,35,26,17,,
{8}3-8[8:1],3,6-1[8:1],6,4,4,5V74-8[8:3],5,3x,3x,2x,2x,1,1,28,,
{16}3,4,,6,5,,2,4,,7,5,,1V35[4:1],8,1,8,1,,,,{4}6<3[4:1]b,Cf,,
{8}1,,37,7/3h[4:1],,{4}4,12,56,7^4[8:1]/8v3[8:1],,{8}1,
{8}1,,26,2/6h[4:1],,{4}5,78,34,1v6[8:1]/2^5[8:1],,{8}8,
{8}8,,26,6/2h[4:1],,{4}4,57,57,24,18,{8}27,
{8}2/7^4[8:1],,,2^7[8:1],,,{4}5pp4[8:3],1bx,,3h[4:1],5,
{8}4,4,,{4}2/6h[4:1],5,78,4/3^8[8:1],5,{8}6,6,,
{8}45,,6/3h[4:1],,4,4,,{4}12,5/6-1[8:1],3,{8}2,24,,
{8}1,,37,3/7h[4:1],,{4}1>5[4:1],5<1[4:1],1>5[4:1],5<1[4:1],1>8[2:1],{8}Cf,
{4},,,1pp4[2:1]/8qq5[2:1],,,,7-3[8:1],
{8}2V41^6[4:2],,5x,5x,,4x,4x,,5-2[8:1]*-8[8:1],,5,,1,1,2-6[8:1],,
{8}7V58^3[4:2],,4x,4x,,5x,5x,,{16}3bhx[8:1]/4bhx[8:1],,,2bhx[8:1]/5bhx[8:1],,,{8}2bx/5bx,,6,6-2[8:1],,
{8}3V14^7[4:2],,8x,8x,,1x,1x,,8h[4:1],,1,,3,3,6,6,
{16}4,5,4,5,3,6,3,6,2,7,2,7,1-4[8:1]*-6[8:1],8,1,8,1,,,,{8}3bx/7bx,,56,5q1^3[8:3]b/6^8q4[8:3]b,47,,
{8},,,,24,2-5[8:1]/4-8[8:1],,2x/4x,,7,7<4[4:1],,4>1[4:1],,1<6[4:1],,
{8}6,,4,,38,1-6[8:1]/2-5[8:1],,12,,78,,2,34,3^1p5[8:3]b/4p8^6[8:3]b,25,,
{8},,,,57,5-1[8:1]/7-4[8:1],,5x/7x,,2,2>5[4:1],,5<8[4:1],,8>3[4:1],,
{8}3,,5,,16,7-4[8:1]/8-3[8:1],,78,,12,,7,56,5^3p7[8:3]b/6p2^8[8:3]b,47,,
{8},,,,17,1^6[8:1]/7-3[8:1],,1x/7x,,4,4pp7[4:2],,3,,2,,
{8}1q5[8:1],,6,,7,7h[4:1],,1,,35,,6,6,4,8/2-6[8:1],,
{8}7-3[8:1],7,1-5[8:1],1,8-4[8:1],8,2-6[8:1],2,7-4[8:1],7,3-8[8:1],3,6-3[8:1],6,1,1,
{16}1,2,3,4,5,6,7,8,1,2,3,4,5,6,7,,,,{8}1,1w5[8:1]b,,,,3bx/7bx,,
{16}6,5,6,5,7,,7,,3,4,3,4,2,,2,,6,5,,47,,47,,3,4,,{8}25,2/5<1[4:1],,
{4}1>5[4:1],5V71[4:1],1V35[4:1],5,1,B3/B6/C/E3/E7,{8}18,18,27,,
{16}2,4,2,4,3,5,3,5,4,6,4,6,3,,3,,3,4,,25,,25,,6,5,,{8}47,47,,
{16}6,5,,3,4,,7,5,,2,4,,8w4[8:1]b,1,8,1,8,,,,{8}2bx/6bx,,12,1q5^7[8:3]b/2^4q8[8:3]b,38,,
{2},{16}8,7,6,5,4,3,2,1,8b-4[8:1],,,,{4}8>3[8:1],8<5[8:1],8,
{8}4,4,7,7,1,1,{16}8x,8x,8x,,,,{8}2-5[8:1]/6-1[8:1],,2b/6b,,48,48,,
{16}3,5,3,5,2,6,2,6,1-5[8:1],7,1,7,1,,,,6,4,6,4,7,3,7,3,8-4[8:1],2,8,2,8,,,,
{8}3x/4x,3x/4x,12,12,78,56,34,4/3-1v8-6[8:3],,5,,4,,15,1^4[8:1]/5-8[8:1],,
{1}1b/5b,,
{1},,
E
Re:MASTER
- added EXPERT -- cubruce1103 (2023-07-23 16:30:15)
最終更新:2026年11月05日 20:54