BASIC
ADVANCED
EXPERT
MASTER
(121)
{48}1,2,3,4,5,6,7,8,1,2,3,4,{1}5bh[1:1]/1b>1[32:53],{2},{4}5s1[32:5],(101.55644),
(158)
{8}2h[8:1],4,2h[8:1],4,{24}2,3,4,5,,,2,3,4,5,,,{8}26,4/7-4[8:1],3pp8[8:3],7^2[4:1],{2},{4}3b/7b,
{8}56,7,56,{16}4-2[8:1],5,,6,{8}4,8,8,15,6,35,{16}6-3[8:1],5,,4,{8}6,2,2,
15,4,36,{16}4-7[8:1],5,,6,{8}4,8,1,23,4,{16}1-5[8:1]/5,6,7-3[8:1],8,{8}1,7,
2h[8:1],{16}1,2,{8}1,8,76,5,47,3,{4}2h[4:1]/5<3qq6[8:5],5b,{16}3h[8:1],,,4h[8:1],,,{8}5,
7hx[8:1],{16}8,7,,1,28,,3hx[8:1],,4,3,,5,46,,7x,5,6,4,7,6,8,,3x,1,2,8,3,2,4,,
{4}5x-1[8:1],{12}5x<4[2:1]/8,7,6,{2}5b/Cf,{4}1h[8:1],2h[8:1]/8h[8:1],
{24}3p5[8:1],7,3,7p1[8:1],3,7,{4}3,4x,{8}4,35,
{16}6,5,4,,{8}3-5[8:1]/5,2/6-2[8:1],3,6,4,{16}3,4,{4}5V74[8:1]*-1[8:1],5,{16}2/3x,,,4x,,,
5x/3,,4,6x,5,,4/7x,,1,8x,2,,1x/7,,5,2x,4,4,{4}3xv6[8:1],{8}3/6>8[8:1],7,8b,,
56,4,{16}3,4,5,,{8}6-4[8:1]/4,7/3-7[8:1],6,3,5,{16}6,5,{4}4-8[8:1]*qq5[16:3],4,{16}6x/7,,,5x,,,
4x/6,,5,3x,4,,2x/5,,8,1x,{4}2/7p2[8:1],7b/3p6[8:1],3b/5<4[4:1],4b/5b,Cf,
{8}78,6,{16}4,4,5,4,6,5,,5,7,5,{8}6,34,25,1^4[8:1],4^1b[8:1],1/6h[8:1],,7,68,4,35,
{16}1h[16:3],,,2h[16:3],,,3,,{12}2x/4,3,4,3x/5,4,5,4x/6,5,6,{4}5x/7b,
{24}8,4,8,4,8x,,{16},,7x,,5,6x,3,3,5x,,24,,1/5^7[8:1],,,2x,5b,,3x,,8h[8:1],4x,,,
{24}5x,1,5,1,5,,{16}48,37,26,,{12}2,4,6,8,4,6,2,8,6,{2}1<3[8:1]/7V53[8:1],
{16}1b/2b,,7,6b/8b,,3,2b/4b,,{2}1^4[8:1]/5^8[8:1],
{16}15,8,7,6,52,,34,,2,1,2,38,{8},5/6v7[8:1],{2}1/2v3[8:1],{8}1b/5bh[4:1],{32}D7,D6,D5,D4,{4}D3f,
{16}2,1,2,1,28,,3,4,3,4,35,,46,,7,78,,2,12,,8,8,8,8,{24}A8,B8,B4,{8}A4,
1-5[8:1],2-4[8:1],1,2,8,{24}A1,B1,B5,{16}7`A5,,7h[16:1],6,,6h[16:1],5,,5h[16:1],4,,4,35,,
8,8,{48}D2,A2,D3,A3,D4,A4,D5,A5,D6,A6,D7,A7,{8}D8f,,3/4v5[8:1],7/8v1[8:1],,,
{16}4h[8:1],,,5h[8:1]/6h[8:1],,,2h[8:1]/4h[8:1],,,6h[8:1]/7h[8:1],,,{8}1^3[8:1]/5^7[8:1],48,{4},
{12}51,8,7,64,3,2,1/7>4[4:1],6,5,{4}4b,5bp1v4^2[8:3]*q1v6^8[8:3],,,
1h[4:1],7h[4:1],{16}6,7,5,6,4,5,3,4,{8}2-4[8:1],1,2/7-5[8:1],8,27,{16}3,3qq4[16:17]/4,{4},
8^5[8:1],8,4h[8:1],6h[8:1],{16}7,5,6,4,{8}35,1^4[8:1],4v7[8:1]*p8[8:1],1,,,
7x-4[8:1]/8x,6,17,{16}2,2,3^6[8:1],,7,7,{8}3,8,2x-5[8:1]/1x,3,82,{16}7,7,6^3[8:1],,2,2,{8}6,1,
7/8^3[8:1],6,84,5,2/1^6[8:1],3,15,4,{24}7,8,1,2,3,4,5h[8:3]/6,7,8,1,2,3,{2}4h[4:1],
{8}56,4v1[8:1],3,2^5[8:1],,12,{16}7,7,{8}8,16,{16}2,4,{8}3-8[8:1],45,{4}6q2[8:1]*^1[8:1],6b,
{8}2x-5[8:1]/4,3,{16}1,1,,6,{8}5,7-4[8:1]/8,,47,2,23,25,2-4[8:1]/7,2-6b[8:1]/1,2x-8[8:1],2x,2x,7x,
6,54,{16}3,3,{8}4,{4}2^5[8:1]/5^8[8:1],25,{8}1v4[8:1]/2,34,1,8v5[8:1],7^4[8:1],8,7,
{4}3bV57-1[16:5],3h[4:1],{16},,2,12,,7,78,,{8}1^4[8:1],4-8[8:1],8^5[8:1],5,{2}1w5[8:1],
{1}A3/B3/Cf/B7/A7,,,{2},
{8}2,3,4,5h,4,6h,5,7h,4/7h,3,2/1h,{16}8h,8h,{8}7h/1^4[8:1],,
1h/5,6,7/5h,,6,4h,5,3h,4,2h,2/8h,3/7h,4/6h,{16}5h,5h,{8}4h/6,,
3/5h,4,5hx[1280:1]/7x,6,5,4h,5,3h,4,2h,2hx[1280:1]/5x,6,7/8h,{16}1hx[1280:1],1h,{8}2h/8^5[8:1],,
8h/4,3,2-6[4:3]/4hb[1280:1],,,{4}A7,C,A3,{8},,,{2}Chf[4:1],
{8}12,{24}2,3,4,{8}56,78,6V47[8:1]/1bh[8:1],,46,3,12,{24}2,3,4,{8}56,78,1^4[8:1]/6hb[8:1],,
1/7-5[8:1],8,7b-3[8:1]/4x,,78,1,2/4b,{24}6,5,7,{8}1,28,5/6b,{24}3,4,2,{8}8bw4[8:1],17,8b,,26,34,
8b/7b,{24}7,6,5,{8}43,21,3V52[8:1]/8bh[8:1],,53,6,8b/7,{24}7,6,5,{8}4/3b,21,{8}3b/8^5[8:1],4^1[8:1],8b,4b,
7-5b[8:1],{16}8,8,{8}7b,3,2-5b[8:1]/4,{16}1,1,{8}2b,7,8-4b[8:1]/6,{16}4,4,{8}8b,2,
{4}3v8[8:1]/7-4[8:1],3b/7b,2bhx[4:1]/6bhx[4:1],{8},1/7-4-6[4:1],8,74,3,2,
17,{24}7,6,5,{8}4/2-6[8:1],{16}8,8,{8}2b-4[8:1],,2/5b-8[8:1],7,5b/1hb[4:1],,
3,24,5,{24}73,6,5,{8}43,12,78,{24}26,{48}3,6,{24}4,{16}57,,1,1,{4}2p5^7[8:1]/8q5^3[8:1],2b/8b,
{8}2x/8x,{24}3,4,2,{8}8,7-3-6-4[16:5]/1,2,37,1,1,28,{24}6,5,7,{8}2-4[8:1],6-8[8:1],2-6[8:1],6,2,8x,
{32}8hb[8:1]/3,4,5b,,,,8hb[8:1]/3,4,5b,,,,8hb[8:1]/3,4,5b,,,,8hb[8:1]/3,4,5b,,,,{8}3/8b,5b/6b,,,
A7,C,A3,,A2/B2/B6/A6,,{4}8hb[4:1]/A4f/E4/B4/E5,{16}2,2,1,3,6,6,5,7,3,3,4,2,8,8,
{24}3,4,5,{16}7,7,{24}2,3,4,{16}6b,6,{24}1,2b,3,{16}5,5b,
{24}8,1,2,{16}4,4,3b,3,8b,7,1,2b,{24}6,5,4,7,6,5,{32}4hbx[32:7]/D8f,D7f,D6f,D5f,D4f,D3f,D2f,D1f,
{4}3bx/7bx,{8},{24}1b/8b,1b/8b,2b/7b,{1}3b/6b,,,,E
Re:MASTER
- 追加しました。修正等ありましたらよろしくお願いします。 -- けもがみ (2023-08-06 13:55:22)
- BPMを修正しました。 -- けもがみ (2026-01-27 19:44:30)
最終更新:2026年04月12日 13:10