アットウィキロゴ

地球

アーティスト 立秋 feat.ちょこ

BPM BASIC ADVANCED EXPERT MASTER Re:MASTER
79 6 9 12+ 14 -

EXPERT MASTER Re:MASTER
譜面制作者 鳩ホルダー じゃこレモン -

BASIC


ADVANCED


EXPERT


MASTER

(79){4}2bx<3[64:45],,(85),(88)3bx>4[32:23],,,(127){4}4bx>5[100#32:23],
{4}6x,(134)5x,(154)4x,(115){8}3x,2x,1x,8x,(135){16}7x,6x,5x,4x,
(155)3x,2x,1x,8x,(180)7x,6x,5x,4x,(210)3x,2x,1x,8x,(250)7x,6x,5x,4x,
(186){24}3x,2x,1x,8x,7x,6x,(279){8}B4/B5/E5f,,,

{4}2-5[8:1],8-5[8:1],1-4[8:1],7-4[8:1],2^4[8:1],{8}6,6h[4:1],,5bx,,7,
{4}7-4[8:1],1-4[8:1],8-5[8:1],2-5[8:1],7^5[8:1],{8}3,3h[4:1],,B4/B5/E5f,,1,
{4}1-4[8:1],7-4[8:1],8-3[8:1],6-1[8:1],2,{8}4,4,7,,16,16,,45,45,,38,38,,45,45,,7,3,7,2b/8b,,

1,{4}1>5[4:1],5<1[4:1],1>5[4:1],5,7,{8}8,8,,17,,8,{4}8<4[4:1],4>8[4:1],8<4[4:1],4,{8}2,2,,6,6,,
1,{4}1-4[8:1],8-5[8:1],3q6[2:1],,,{8}7x,7hx[4:1],,5,,4,{4}4-1[8:1],5-8[8:1],2p7[2:1],,,6bhx[4:1],5x,
{8}7,8,7,8,6,1,6,1,7,8,7,8,6h[4:1],,3,,2,1,2,1,3,8,3,8,2,1,2,{4}3xV14[8:3]*pp4[8:3]/8x,,,{8},
{4}27,36,45,{32}D5,E4/E6,E3/E7,E2/E8,{4}D1,3x/7x,{8}2,1,3,8,4,7,5,6<2v4[2:1],{4}4,3h[4:1],,1bx,
{8}7,{4}7h[4:1],8h[4:1],1h[4:1],2h[4:1],3h[4:1],4-8[8:1],7bx,
{8}6,{4}6h[4:1],5h[4:1],4h[4:1],3h[4:1],2h[4:1],1-4[8:1],5bx,
{8}6,{4}6h[4:1],7h[4:1],8h[4:1],1h[4:1],2h[4:1],3-7[8:1],4bx,
{8}5,5h[4:1],,1,6,2,7,3x/8xv5[4:1],,,,{8}4x,3x,2x,1bx/B5/B6/E6f,,

2,{4}2^4[8:1],1-5[8:1],8-4[8:1],7^5[8:1],1^4[8:1],{8}8,8h[4:1],,B1/B2/E2f,,
7,{4}7^5[8:1],8-4[8:1],1-5[8:1],2^4[8:1],8^5[8:1],{8}1,1h[4:1],,B8/B7/E8f,,
3,{4}3^5[8:1],2-6[8:1],1-5[8:1],8^6[8:1],2^5[8:1],{8}1,1h[4:1],,B2/B3/E3f,,
6,4,4,5,5,3,3qq7[4:2],{2},{8}5,,6,6b,,
1,{4}1-4[8:1],7-2[8:1],3-6[8:1],8-5[8:1],4-8[8:1],6h[8:3],{8}1,2b,,
5,{4}5-8[8:1],3-6[8:1],7-2[8:1],4-1[8:1],8-4[8:1],3h[8:3],{8}5,6b,,
2,{4}2>6[4:1],6<2[4:1],2>6[4:1],6<2[4:1],2,{8}6,7,8,,
{16}3,4,{4}3,{16}6,5,{4}6,{16}2,4,{4}2,{16}7,5,{4}7,{8}1x,2x,3x,4bx/B5/B6/E6f,,

7,{4}7^5[8:1],8p4[8:1],1q5[8:1],2^4[8:1],8^5[8:1],{8}1,1h[4:1],,B8/B7/E8f,,
2,{4}2^4[8:1],1q5[8:1],8p4[8:1],7^5[8:1],1^4[8:1],{8}8,8h[4:1],,B1/B2/E2f,,
6,{4}6^4[8:1],7p3[8:1],8q4[8:1],1^3[8:1],7^4[8:1],{8}8,8z4[8:3],,6h[8:3],{2},
{4}38,1-5[8:1]/2-6[8:1],12,,{8}3,3,4,2b/5b,,
6,5,5,7,7,4,4,8,8,3,3,1,1,28,28,,3,4,4,2,2,5,5,1,1-4[8:1]*-6[8:1],,1,,,
5,5,,2,{4}2-7[8:1],6-3[8:1],8-3[8:1],5-1[8:1],2-6[8:1],{8}8,8,,
{16}73,6,5,4,3,2,1,8,7,6,5,4,3,2,1-5[8:1],8,7,6,{2}51,{8}3,5,3,2b/6bh[8:3],,8,
{4}1-5[8:1],1/7-3[8:1],7/2-6[8:1],2/5-8[8:1],5/4^1[8:1],{8}7x,6x,5x,

(179)
{1}4x/8x,,{2},
{2}3h[1:1],,{4}4,{2}6h[1:1],,{4}5,{4}3hx[4:3],,,4h[4:3],,,
5h[4:1],6h[4:1],7h[4:1],8h[16:9],{16}B1,,,,,Chf[2064:1103],,,(129){4},

(79){4}7bx>6[32:23],,(82),(86)6bx<5[32:23],,(88),(126){4}5bx<4[96#32:15],
3,(133)4,(147)5,(110){16}6,7,(135)8,1,2,3,
(165){16}4,5,(180)6,7,(205){16}8,1,(225)2,3,(250)4,5,(185){24}6,7,8,1,2,3,

(279)
{8}4x/8hx[4:7],,6,6,,{4}5,4,3,2,{8}1x,{4}1x,7b/8b,
{8}6,{4}6^4[8:1],7p3[8:1],8q4[8:1],1^3[8:1],7^4[8:1],{8}2x,2hx[4:1],,B5/B6/E6f,,
{8}3,{4}3^5[8:1],2q6[8:1],1p5[8:1],8^6[8:1],2^5[8:1],{8}1,1h[4:1],,B3/B2/E3f,,
{8}7,5,5,6,6,4,4,{2}3bx-8[4:1]/5bx-8[4:1],{8},,26,2b/6b,,
5,{4}5-8[8:1],3-6[8:1],7-2[8:1],4-1[8:1],8-4[8:1],2h[8:3],{8}5,6b,,
1,{4}1-4[8:1],7-2[8:1],3-6[8:1],8-5[8:1],4-8[8:1],6h[8:3],{8}1,2b,,
7,{4}7<3[4:1],3>7[4:1],7<3[4:1],3>7[4:1],7,{8}3,2,1,,
{16}6,5,{4}6,{16}3,4,{4}3,{16}7,5,{4}7,{16}2,4,{4}2,{8}8x,7x,6x,5bx/B4/B3/E4f,,,

{4}7h[4:1],8h[4:1],1h[4:1],2h[4:1],3h[4:1],{8}4,4,5,5,
2-6b[8:1],2,7-3b[8:1],7,4-8b[8:1],4,5-1b[8:1],5,2-6b[8:1],2,7,7,4,4,5,5hbx[8:3],,,
{16}8,1,2,3,48,7,6,5,48,1,2,3,48,7,6,5,{8}48,,6<2v4[2:1],,4,4,,,3,3,5,5,2,2,{2}1b/7b,
{8}6,6,4,4,3b/5b,,{16}2-6[8:1],4,2,4,{4}2,{16}7-3[8:1],5,7,5,{4}7,4,28,71,
{16}6-2[8:1],8,6,8,{4}6,{16}3-7[8:1],1,3,1,{8}3,,8,8-3[8:1]*-5[8:1],,8b,,,
6,6,,3,{4}3-8[8:1],7-4[8:1],1-4[8:1],5-1[8:1],2-6[8:1],{8}8,8,,
{16}37,6,5,4,3,2,1,8,7,6,5,4,3,2,1-5[8:1],8,7,6,{2}51,{8}6,5,6,4b/7b,,
2,{4}1-5[8:1],1/7-3[8:1],7/2-6[8:1],2/4-7[8:1],41,{8}2,3hb[4:1],,
7,{4}8-4[8:1],8/2-6[8:1],2/7-3[8:1],7/5-2[8:1],58,{8}7,6,1b/5bh[8:3],,,
{16}8,1,2,3,48,7,6,5,48,1,2,3,48,7,6,5,48,1,2,3,{8}48,,26,{1}1b/5b,,,,

Re:MASTER


  • 追加しました。修正等ありましたらよろしくお願いします。 -- けもがみ (2023-08-09 02:04:07)
名前:
コメント:

タグ:

+ タグ編集
  • タグ:
最終更新:2026年04月21日 03:58