BASIC
ADVANCED
EXPERT
MASTER
(180)
{4},,,{24},,,1x/7x,2x/6x,3x/5x,{1}4x>4[4:29]*<4[4:29],,,,,,,{8},{4},,,{24}8x/2x,7x/3x,6x/4x,
{2}5<4[4:31],E5,E4,E3,E2,E1,E8,E7,E6,B4,B3,B2,B1,B8,B7,B6,B5,{4},Cf,
34,71,{8},5,46,,8,8,71,{16}6,5,,5,{8}6,47,,56,,28,,,4,35,,1,1,28,{16}3,4,,4,{8}3,25,,
{16}7,5,6,5,7,,3,4,,2,1,,3,4,,2,1,,6,5,,7,8,,6,5,,7,8,,16,,
2,4,3,4,2,,6,5,,3,4,,6,5,,3,4,,2,1,,7,8,,2,1,,7,8,,61,,
{8}34,,71,,,4,71,,2,2,13,{16}4,5,,7,5,,{8}46,,57,,28,,,5,28,,7,7,86,{16}5,4,,2,4,,{8}53,,
{16}2,4,3,4,2,,7,8,,6,5,,3,4,,2,1,,7,8,,6,5,,3,4,,2,1,,38,,
7,5,6,5,7,,3,4,,7,8,,6,5,,2,1,,3,4,,7,8,,6,5,,2,1,,38,,
{8}2x-5[8:1],2,2,,{2}6-1[8:1],{16}8<4[2:1],,,1x,,,{8}2,2,,3,,
3x-7[8:1],3,3,,{2}5-8[8:1],{16}7>3[2:1],,,6,,,{8}5,5,,4,,
5x-1[8:1],5,5x,,{2}3-8[8:1],{16}1q4[2:1],,,8,,,{8}7,7,,6,,
4-1[8:1]/6-1[8:1],46,46,,{2}3x-5[8:1]/7x-5[8:1],{8}78,78,16,25,{16}3,4,3,,{4}25,
{16}1/7h[4:1],2,3,4,{4}5b,{16}7/1h[4:1],6,5,4,{4}3b,{16}2/8h[4:1],3,4,5,{4}6b,{16}8/2h[4:1],7,6,5,{4}4b,
{16}7,8,7,8,7h[16:3],,,6h[16:3],,,5h[16:3],,,4h[16:3],,,2h[16:3],,,1h[16:3],,,8h[16:3],,,7h[16:3],,,{4}6,
{16}17,2,3,4,{4}5b/6,{16}82,7,6,5,{4}4b/3,{16}12,3,4,5,{4}6b/7,{16}18,7,6,5,{4}4b/3,
{16}2,8,2,8,2h[16:3],,,4h[16:3],,,6h[16:3],,,4h[16:3],,,2h[16:3],,,8h[16:3],,,6h[16:3],,,8h[16:3],,,{4}2,
{2}B1/B2,B8/B7,{6}B5/B4/E5,E4,E3,E2,{6}B1/B8/E1,E8,{4}E7,,E3/C/E7,{8}E1,C,{2}E5,
{16}4,5,4,,{8}36,,26,2,2,34,3,3,12,28,27,7,7,56,6,6,78,71,
{16}6x/2hx[2:1],5x,4x,3x,1x,8x,7x,6x,5hx[2:1],3x,4x,6x,7x,8x,1x,2x,
{4}3x-7[8:1],3/6-2[8:1],62,{32}1,2x,3,4x,5,6x,7,8x,{4}1xw5b[8:1],1bx,
{8}27,2-7[8:1],1,2/6-3[8:1],5,6/1-5[8:1],2,1/8-4[8:1],7,84,3,5,2-6[8:1]/6,,2b/8,,
37,3-6[8:1],2,3/7-2[8:1],8,7/4v1[8:1],3,4/5v8[8:1],6,45,3,,{16}1-5[8:1],8,2,8,{8}1b,,
5x/6x,47,26,{16}1x<5[8:1],2,3,4,{4}5x/1x,{16}8x<4[8:1],1,2,3,{8}4x/8x,2x,2x,{16}1-5[8:1],8,2,7,{4}1b,
{16}3,5x,3,5,4,6,4,6,2,1,3,8,4,7,5,6,3,4,2,5,{32}1x,8x,7x,6x,5x,4x,3x,2x,{4}1x-5[8:1]/6x,8,
{8}4v1[8:1]/6x,6,,7,8/2v5[8:1],7,6,,4/6v1[8:1],3,2,,{16}8,7,6,5,{8}48,,1x/8x,
{16}3,2b/4b,,6,7b/5b,,1x/8x,,2,3b/1b,,7,{4}6b/8b,18,{8}24,
{16}3,4,2,,6,5,7,,3,4,2,,6,5,7,,3,4,1,,6,5,8,,3,5,1,,6,4,8,,
3,1,3,1,3,8,3,7,4,7,5,7,6,7,8,7,1,7,1,7,1,7,1,7,{32}2,3,4,5,6,7,8,1,2,3,4,5,6,7,8,1,{2}2hx[1:3]/6x,
{32}B1,B2,,,{8},,,B3,,,{16}B4,B5,{2}E6,B7/B6,{48}E7,B6,B5,E5,,,{8},,,{2}B3/B2/E3,{8}56,56,47,,
{12}3b,3,3,2,2,2,1b,1,1,8,8,8,7b,7,7,6,6,6,5b,5,5,4,4,4,{2}3h[4:3],5h[4:1],
{8}4-8[8:1],4,,,{24}1xv4[8:1]/7xv4[8:1],26,35,4,,,{8}1b/7b,,
6,6,57,6,{16}2-5[8:1],1,3,1,{8}2b,,3x,3,42,3,{16}7-4[8:1],8,6,8,{8}7b,,
{32}1/2b,3x,4x,,{8},7,{32}8/7b,6x,5x,,{8},1,1,{32}8/1b,2x,3x,4x,,,,,8b,1x/7x,2x/6x,3x/5x,{8}4bx,
1x,{32}1b,8x/2x,7x/3x,6x/4x,{8}5bx,7x,{32}7b,6x/8x,5x/1x,4x/2x,{1}3bx>5b[2:7],,,{4},,,{1}4-8[8:1],,,,E
Re:MASTER
- 追加しました。修正等ありましたらよろしくお願いします。 -- けもがみ (2023-08-09 11:16:06)
最終更新:2026年05月24日 15:22