アットウィキロゴ

ULTRA SYNERGY MATRIX

アーティスト Tanchiky

BPM BASIC ADVANCED EXPERT MASTER Re:MASTER
160 5 7 12 14 -

EXPERT MASTER Re:MASTER
譜面制作者 Jack サファ太 -

BASIC


ADVANCED


EXPERT

(160)
{4}2>5[8:5],,,,7<4[8:5],,,,
{8}3h[8:3],,,4h[8:3],,,
{4}5,5/6,7/8,1/2,3/4,
{4}6x/5h[8:1],5h[8:1],5h[8:1],5h[8:1],3x/5h[8:1],5h[8:1],5h[8:1],5h[8:1],
{4}7x/5h[8:1],5h[8:1],2x/5h[8:1],5h[8:1],5/8x,
{12}1x,1x,1x,8x-4[8:1],,,
{4}2b,3/5,3/5,2h[8:1]/4h[8:1],
{8}3,3,5,,
{4}4/6,7-4[8:1],1-5[8:1],8x,4/6,5h[8:1]/7h[8:1],
{8}6,6,4h[4:1],,5b,,
{16}5x,4x,,4x,5x,,5x,,
{8}3,,2/4,,1,1,2/8,,
{8}7,7,5,6v4-2[16:5],6,,,,1x,,2/8,,7,7,5,6p4>1[2:1],
{4}6,,,7x/8x,1b/5b,3-6[8:1],
{8}7,7,5,,1/7,,3v6[8:1],,
{8}7,7,5,,1/7,,3<6[8:1],,
{8}7,7,5,,1-4[8:1]/7-4[8:1],,,,2/6,2/6,
{4}1b/7b,8/4,6-3[8:1],
{8}2,2,4,,8/2,,6v3[8:1],,
{8}2,2,4,,2x/8xp2[4:1]b,,,,1xs5[4:1]b,,,,
{4}8x,3xV15[4:1]b/6xV84[4:1]b,,,
{4}3/6,2/4,5h[4:1],4,6/5,7/4,3h[4:1],4,1/2,3/8,7h[4:1],8,
{4}1/6p8[4:1],,2p4[4:1],,
{4}6,5/7,4h[4:1],5,3/4,2/5,6h[4:1],5,8/7,1/6,2h[4:1],1,3/8,8/3-6[8:1],
{2}7b,8h[2:1],7h[2:1],6h[2:1],5h[2:1],4h[2:1],3h[2:1],2h[2:1],1h[2:1],
{16}8,,,,7/5h[16:3],,,6,,,6,,5/7,,,,5/4,,,,2/4h[16:3],,,3,,,3,,2/4,,,,
{8}1,1,8<1[8:3],8,,,,,4x,,8,8,1/7-3[8:1],,,,
{4}1h[1:2],C,E4,D3,E2,C,E4,D3,8h[1:2],C,E6,D7,E8,C,E6,D7,
{4}1h[1:1],E2,D3,E4,8h[1:1],E8,D7,E6,1h[2:1],E3/B3,8h[2:1],E7/B6,
{4}1b,1b,1b-5[8:1],8b,4x/6x,7/8,
{8}6,6,5,7,7p3[8:1],,1,,2/8,,
{8}3x/4x,5x/6x,1x/7x,,5/3h[4:1],,2h[4:1],,
{8}1pp6[8:3],1,8,,,,7h[4:1],,8,8,1b/7b,,5/6,,3,3,4,2,
{4}2q6[8:1],8,1/7,
{8}5x/6x,3x/4x,2x/8x<5[8:1],,
{4}4,1x>4[8:1],5,8-2[8:1],4-6[8:1],7-3[8:1],1b,
{8}2x/4x,3,4,5,6<1[8:1],,2,,4,3,2,1,8/2-6[8:1],,,,
{8}7x/5x,6,5,4,3>8[8:1],,7,,5,6,7,8,
{4}1/7x-4[8:1],3x-8[8:1],5x,
{8}7,7,1,1,8,8,2>5[8:1],,6,,1/7,,
{8}8/2,8/2,3x/7bh[4:1],,
{4}5,6x/2bh[4:1],4,1b>4[8:1]/8b<5[8:1],,
{8}E5f,E7f,E1f,E3f,Cf,,
{4},,,,,8/2-5[8:1],7-4[8:1],1b,3,2/4,
{8}5/7,6,4bh[4:1]/5bh[4:1],,,,
{16}4x,5x,,5x,4x,,4x,,
{8}6,,5/7,,8,8,1/7,,2,2,4,3v5-7[16:5],3,,,,8x,,7/1,,2,2,4,3q5<8[2:1],
{4}3,,,1b,E8/B7/B6/B5/B4/B3/B2/E2,,E1/B8/C/B4/E5,,
{4}3b/4b,5b/6b,A3/E3/E2/A1/B1/B8/E1/A8/E8/E7/A6/Cf,,4x/5x,6-3[8:1],
{8}2,2,4,1,2/8,,6v3[8:1],,
{8}1,1,4,1,2/8,,6>3[8:1],,
{8}2,2,4,1,2-5[8:1]/8-5[8:1],,,,
{8}3/7,3/7,2b/8b,,1/7-4[8:1],,3-6[8:1],,
{8}7,7,5,8,1/7<4[8:1],,3v6[8:1],,8,8,5,7,2/8-4[8:1],,3<6[8:1],,7,7,5,8,1b/2b,
E

MASTER

(160)
{1}1q8[8:3]/8p1[8:3],2^7-3^6[2:1],5V74-1-3[2:1],{8}4/5x,6,5x/7,6,3/5x,2,
{4}1x>5[4:1]/6x,5<1[4:1],1>5[4:1],5<1[4:1],1>5[4:1],5<1[4:1],1,5,37,
D1/D8/E1/E8/B8,E2/B1/C/B5/E6,E3/D3/E4/D4/E5/D5/B3/B4,2h[4:1],1bx,
{12}1/8x,1x/8,1/8x,{4}2x-5[8:1]/7-4[8:1],27,3bx/6bx,

{16}3x,5,4,6,3x,5,4,6,3x,7,4x,6,5x,6,4,5,2x,4,3,4,{4}1b-5[8:1],8b,3b/7b,
{16}3x,6,4,5,3x,6,2,5x,5x,4,6x,2,{4}8x-4[8:1],4bx,{16}3/5x,3/5x,,6/4x,6/4x,,
{8}3/7x,2hx[4:1]/8,,4-6[8:1],4,2-4[8:1],2,1,8,7^5[8:1],7-1[8:1],7-3[8:1],,
{6},1bx,2bx/8bx,{8}3bx/7bhx[4:1],,5V38[4:1],5,8,7,6,6,56,{24}4,5,3,{8}4,26,{16}1,1,,28,{8}28,7x,

6b/5b,18,26,{16}3,4,2-5[8:1],5,1,6,{8}2,8,26,45,37,
{16}2,1,3-8[8:1],8,4,7,{8}3,5,37,18,26,{16}3,4,2-6[8:1],5,1,6,{8}2,8,1b/7b,,3,24,
8b,1b/7b,2b/6b,,4b/5b,37,56,{16}7,8,6-1[8:1],1,5,2,{8}6,4,26,45,37,{16}2,1,3,8,4,7,{8}56,56,
{2}D1/D8/E1/E8/B8f,E2/B1/Cf/B5/E6,{4}D1/D8/E1/E8/B8f,E2/B1/Cf/B5/E6,E3/D3/E4f/D4/E5/D5/B3/B4,8x,

{16}7h[8:1],,5,6h[8:1],,4,5h[8:1],,3,4h[8:1],,3,4,,25,,
2h[8:1]/5,,4,3h[8:1],,5,4h[8:1],,6,5h[8:1],,6,5,,{8}47,3h[8:1]/8,
{16}1,2h[8:1],,8,1h[8:1],,7,8h[8:1],,7,8,,{8}78,{1}2^3-5b[8:3]/6v1[8:3],
{16}47,,6,5,,5,4,,4,3,,3,4,,25,,25,,3,4,,4,5,,5,6,,6,5,,74,,38,,2,1,,1,8,,8,7,,7,8,,18,,
{4}2b-5[8:1]/7b,6b-1[8:1],2b-7b[8:1],5b,{1}6hx[1:3]/8xp1s5V74-1-3[1:3],,,{2},

{4}36,45,34,2h[16:3]/5h[16:3],{8},34,{4}34,65,7h[16:3]/4h[16:3],{8},65,{4}6/5p4[4:3],{1}7h[4:3],
{2}4h[4:1]/6-8[8:1],8x/1xs5[16:3],{4}E6,B6,B7,E8,1h[4:3]/8x,8x,8x,8x,
8x-5b[4:3],B2,B3,E4,Ch[4:3],5x,6x,7x,{8}18,1,12,2,23,3,34,4,45,5,56,6,67,7,78,8,
{16}7,1,7,1,7,1,7,1,{32}6,5,4,3,2,1,8,7,6,5,4,3,2,1,8,7,
{4}6bx/2bx-4[8:1],2bx/5bx-8[8:1],4bx/5bx,2-5b[8:1]/7-4b[8:1],2b/7b,

{16}12,12,,38,,56,,34,34,,71,,26,,3,4,1,8,5,6,1^4-8[4:1],8,2,6,1,,5,,7b,,,,
87,87,,46,,35,,12,12,,35,,48,,7,5,6,3,4,2h[8:1],,8,8,,3-8[8:1],5,2,6,3b,,,,
71,71,,56,,34,,25,25,,17,,38,,6,5,8,1,4,3,8^5-1[4:1],1,7,5,8,,3,,
2b-5[8:1],,,1,2,,8,,7b-4b[8:1]/4b,,,8,7,,1,,{4}2b-7[8:1]/5,2b/6b-3b[8:1],2b-5[8:1]/6b-1b[8:1],2b/6b,

{8}3b/7b,45,{16}6,5,7,2,1-6b[8:1],3,4-8[8:1],2,1,,4,,7x,,26,,3,5,4,7,5,6,8,7,3,4,1,8,
{8}3b/7b,45,{16}6,5,7,2,1-6b[8:1],3,4-8[8:1],2,1,,4,,7x,,17,,6,4,5,2,4,3,8,1,7-3b[8:1],8,6,8,7b,,,,
2,1,3,6,5-2b[8:1],7,8-4[8:1],6,5,,8,,3x,,26,,7,8,6,2,1,3,6,5,7,2,1,3,
{4}8-4[8:1],8/2-6[8:1],2/5-8[8:1],5/1^4[8:1]*^6[8:1],1,8x,{8}17,26,35,46,3b/7b,,

{16}2V41[16:3],1,2,1V73[16:3],{4},,4x/6x,{16}8,2,8,2,{4}8bq4[8:1]*p4b[8:1],8b,2b/6b,
{16}3V15-2[8:3],4,3,4,{4},,8x-4b[8:1],1bx/8bx,{16}3/5x,3/5x,,6/4x,{8}6/4x,3/7x,2bx/8b,,
{16}7V58[16:3],8,7,8V26[16:3],{4},,5x/3x,{16}1,7,1,7,{6}1,
2hbx[12:1]/8hbx[12:1],3hbx[12:1]/7hbx[12:1],{4}4bx/6bx,
{16}2,5,3,4,2,5,3,6,4,7,5,,{4}7^4[16:1]/8^3[16:1],{32}E1/E7,E2/E6,E3/E5,,{16},,
3x,4x,,6x,{8}5x,37,3x/7x,,{16}3,4,3,4,{4}2x/5x,{16}6,5,6,5,{4}7x/4x,3x/4x,2x/1xw5[8:1],A1f,3b/7b,

{16}16,,7,8,,16,,3,4-8[8:1],,25,,3b/4,,,,16,,7,8,,16,,3,4-8[8:1],,25,,3b/4,,,,
71,,3,4,,56,,37,{8}3-7[8:1]/7-3b[8:1],28,Cf,,1,1,2b/8b,4b/6b,{4}3b-8[8:1]/7b-4[8:1],3bx/7bx,
{16}15,,2,4,3,5,4,6,{8}5-1[8:1],47,5/6b,7,82,{16}7,5,6,4,5,3,4,,26,,
1,8,1,8,2,7,2,7,{32}3,4,5,6,7,8,1,2,{8}3-7[8:1]/5-1[8:1],4,{1}3b/5bx,,,,E

Re:MASTER


  • 追加しました。修正等ありましたらよろしくお願いします。 -- けもがみ (2023-08-10 07:48:39)
名前:
コメント:

タグ:

+ タグ編集
  • タグ:
最終更新:2026年05月12日 22:47