アットウィキロゴ

We Gonna Party (DX)(創作譜面:福音)

曲名 We Gonna Party (DX)
制作者名 福音
音源 We Gonna Party
譜面動画
制作者コメント DX譜面です
BPM EASY BASIC ADVANCED EXPERT MASTER
--- - - - - 14

EASY


BASIC


ADVANCED


EXPERT


MASTER

(159)
{4},,,Ch[4:5],{1},
7b-5v4-2[8:5],1<4v6[8:5],
{2}7pp8-5[4:1],{4}4-8b[16:1],Cf,
{16}3x/5,3x/5,,6x/4,6x/4,,1,28 ,
,,{32}8,7,6,5,{4}8b/4b,
{16}7-4[8:1]/3,,6,5,7x,,8,,1-5[8:1],2,3,4,1/5x,,4,,
{8}3h[4:1],A1/E1,7h[4:1],A5/E5,2h[4:1],E8,E7,E6,
{32}8b,1,2,,5,,5,,1b,2,3,,6,,6,,{16}2,2,4,4,5,5,7,7,
3,4,3,2,3,1,4,8,5,7,6,7,{8}8bxz4b[8:1],2bx/6b,
{4}8b/4bw8b[8:1],A4f,{16}2x-6[8:1],3,2,1,2,,8,,
7,5,,5,4,,34,,3,2,,2,1,,18,,
{8}8hx[8:7],4,6,2,5,3,1,5,
7x-2[8:1],8,7/3,4,
{32}7xv4[8:1]/3v8[8:1],6,5,4,3,2,1,8,{4}7bx/3bx`Cf ,
{8}1-6[8:1],6V82[8:1],1,{16}4x,5,6,,3x,4,2,,1x,2,
3-7[8:1],,1,,8,,6x,5,4,,8x,7,1-4[8:1]/1-6[8:1],,28,,
1b,,,,2,3,,1,7x,6,5,4,8x,7,6,5,
3,4,1,2,7,8,6,5,7h[4:1],,{32}D7,D8,D1,D2,{4}D3f,
{16}7x-4[8:1]/1,6,5-1[8:1],,7 ,,5x,,3,,8,1,7,,1,2,
3-8[8:1],,8-4[8:1],,3,,4x,5,6^1[8:1],,4,3,2^7[8:1],,4,,
3bx,,E3,,C,,E7,,2x,3,4,5,1x,2,3,4,
6,5,8,7,2,1,3,4,2h[4:1],,{32}A8,B8,C,B4,{4}A4f,
{4}Ch[4:11]/7p4>5[4:10],,,,,,,,,,,{16},,8bx,8bx,
2bx,4,3,7bx,5,6,1bx,3,2,8bx,8b,8b,8b,8b,8b,8b,
{16}2-5[8:1]/6,,3,4,2x,,1,,8-4[8:1],7,6,5,8/4x,,5,,
{8}6h[4:1],A8/E1,2h[4:1],A4/E5,7h[4:1],E2,E3,E4,
{32}1b,8,7,,4,,4,,8b,7,6,,3,,3,,{16}7,7,5,5,4,4,2,2,
6,5,6,7,6,8,5,1,4,2,3,2,{8}1bx>5b[8:1]*<5b[8:1],7bx/3b,
1b-5b[8:1],,{48}B1,Cf,B5,,,,{8},{16}7x-3[8:1],6,7,8,7,,1,,
2,4,,4,5,,65,,6,7,,7,8,,81,,
{8}1hx[8:3],5,3,7,4hb[8:3],6,8,2,
{16}7b-3[16:1],,,8b-4[16:1],,,1b-5[16:1],,,2b-6[16:1],,,3bx,,8bx,,
{8}8-3[8:1],3V17[8:1],8,{16}5x,4,3,,6x,5,7,,8x,7,
6-2[8:1],,8,,1,,3x,4,5,,1x,2,8-5[8:1]/8-3[8:1],,71,,
8b,,,,7,6,,8,2x,3,4,5,1x,2,3,4,
6,5,8,7,2,1,3,4,2h[4:1],,{32}D3,D2,D1,D8,{4}D7f,
{16}2x-5[8:1]/8,3,4-8[8:1],,2 ,,4x,,6,,1,8,2,,8,7,
6-1[8:1],,1-5[8:1],,6,,5x,4,3^8[8:1],,5,6,7^2[8:1],,5,,
6bx,,E7,,C,,E3,,7x,6,5,4,8x,7,6,5,
3,4,1,2,7,8,6,5,{4}7w3[8:1],7b`Cf/B2/B4,
{8}6hx[8:1],7h[8:3],3h[4:1],,{32},84,15,26,37,48,5b/1b,,{4},
{16}E2,E8,E4,E6,E3/B3,E7/B7,E1/B1,E5/B5,
A1,A7,A3,A5,A2/E2,A8/E8,A4/E4,A6/E6,
{8}3hx[8:1],2h[8:3],6h[4:1],,{32},15,84,73,62,51,4b/8b,,{4},
{16}8,2,7,8h[8:1],,3,2,5,4,7,6,8,2,1,3,7,
{8}4h[8:1],2hx[8:3],6hx[4:1],,{32},1h/5,8h/4,7h/3,6h/2,5h/1,4b/8b,,{4},
{16}}2,2,1,3,6,6,5,7,3,3,4,2,7,1,4,3,
{8}5h[8:1],7hx[8:3],3hx[4:1],,{32},8h/4,1h/5,2h/6,3h/7,4h/8,5b/1b,,{4},
{16}8,8,2,2,{32}7b,6,5,,3h,,3h,,8b,7,6,,4h,,4h,,{4}1bx/Cf,
{16}2x,3,2,4,,5x/6x,,7x/8x,,E2,E3,E4,{32}8x,1,2,3,6x,7,8,1,
{16}2b,,,,,3h[16:15]/8h[16:15],,,{4},,
,{32},D3/D8,A2/A7,D2/D7,A1/A6,
E


名前:
コメント:

タグ:

+ タグ編集
  • タグ:
最終更新:2023年08月13日 02:13