BASIC
ADVANCED
EXPERT
MASTER
(120)
{4},,,{16}5,6,7,8,{4}1,,4z8b[4:1]/5s1b[4:1],,
{8},{24},,2hx[24:16],,,,,1hbx[24:11],,{4},(102.857142),
(180)
4x/5x,45,35,35,45,45,25,25,45,45,15,15,45,45,2b/7b,,
5x/4x,54,64,64,54,54,74,74,54,54,84,84,54,54,7b/2b,,
{8}8-4[8:1],1,2,3,5-1[8:1],4,3,2,8-4[8:1],1,2,3,5,4,35,2,
1-5[8:1],8,7,6,4-8[8:1],5,6,7,1-5[8:1],8,7,6,{2}4b/7b,
{16}4x/5x,,3,4,3,,6,5,6,,3,4,3,,6,5,7,,3,4,2,,6,5,7,,
3,4,2,,6,5,8,,3,4,1,,6,5,8,,3,4,1,,6,5,8,,{8}37,26,15,{4}8^3[8:1]/4^7[8:1],,
4x/8x,{16}6,5,6,,{4}24,7x/8x,15,{16}3,4,3,,{4}5bh[4:1]/7bh[4:1],,
48,{16}6,5,6,,E2,E7,E3,E6,{4}B4,15,{16}3,4,3,,6h[4:1],,,5,{8}5,47,
38,,{16}7,5,6,,{4}24,7x/8x,15,{16}2,4,3,,{4}5bh[4:1]/7bh[4:1],,
48,{16}7,5,6,,E2,E7,E3,E6,{4}B4,1V35[4:1]/5V71[4:1],,,3b/7b,
{8}2h[2:1],1,1,1,7h[2:1],8,8,8,2h[2:1],1,1,1,7-5[8:1],8,1,2,
3h[2:1],4,4,4,6h[2:1],5,5,5,3h[2:1],4,4,4,4b,1b/8b,5b/6b,,
7h[2:1],8,8,8,2h[2:1],1,1,1,7h[2:1],8,8,8,2-4[8:1],1,8,7,
6h[2:1],5,5,5,3h[2:1],4,4,4,6pp2b[2:1],5,5,5,5,4,3b,,
81,7,65,7,18,2,34,2,18,7,63,5,41,2,36,4,58,7,62,5,41,2,37,4,56,7,81,7,65,4,35,2,
1x/6x,{4}1-5[8:1]/6,8-4[8:1],7-3[8:1],6-2[8:1],5-1[8:1],4,{8}78,78,,
34,{4}4-8[8:1]/3,5-1[8:1],6-2[8:1],7-3[8:1],8-4[8:1],{8}1,{2}1bx^4[8:1]*^6[8:1],
{8}18,2,34,2,81,7,65,7,81,2,36,4,58,7,63,5,41,2,37,4,58,7,62,5,43,2,18,7,65,4,38,,
1bx/2bx,12,34,34,56,56,78,78,8bx/1bx,81,23,23,45,45,67,67,7bx/8bx,56,34,12,7bx/8bx,16,25,,
{32}2bx,3,4,5,6,7,8,1,2,3,4,5,6,7,8,1,2,3,4,5,6,7,8,1,{4}2xw6b[1:2]/6x,{1}2b,,,{4},
{8}45,34,{16}2x,5,2,5,2,5,2,5,3x,6,3,6,3,6,3,6,4x,7,4,7,3x,6,3x,6,
2x,5,2,5,3x,6,3x,6,4x,7,4,7,3x,6,3x,6,2x,5,2,5,3x,6,4x,7xV16[16:5],{4}5hx[2:1],,,
{8}12,38,{16}7x,4,7,4,7,4,7,4,6x,3,6,3,6,3,6,3,5x,2,5,2,6x,3,6x,3,
7x,4,7,4,6x,3,6x,3,5x,2,5,2,5,2,5,2,4x,1,4,1,4,1,4,1,{4}5x>1[4:1]*<1[4:1],,,
{8}8,17,{16}2x,6,2,6,2,6,2,6,3x,7,3,7,3,7,3,7,4x,8,4,8,5x,1,5x,1,
4x,8,4,8,3x,7,3x,7,2x,6,2,6,1x,5,1x,5,8x,4,8,4,1x,5,2x,6xV84[16:5],{4}3hx[2:1],,,
{8}5,46,{16}7x,3,7,3,7,3,7,3,6x,2,6,2,6,2,6,2,5x,1,5,1x,4x,8,4x,8,
5x,1,5,1,6x,2,6x,2,5x,1,5,1,4x,8,4x,8,5x,1,5,1,6x,2,6,2,7x,3,7,3,8,4,8,4,1,5,1,5,{4}4bx/8bx,
3x/4x,34,45,45,56,56,45,45,34,42,34,45,56,57,56,45,
{16}2x/7x,,6,5,6,,3,4,3,,6,5,6,,3,4,2,,6,5,7,,3,4,2,,6,5,7,,3,4,
{2}1xs5[2:1],6xV47-3-8-2b[1:1],,{4},Cf,
8x-4[8:1],3-8[8:1],{8}7,7,1,1,2-6[8:1]/5,{16}5,6,{8}7,7h[8:5],5,,{16}5,4,3,2,
{4}1x-5[8:1],6-1[8:1],{8}2,2,8,8,7-3[8:1]/4,{16}4,3,{8}2,2h[8:1],{16}4,5,6,7,84,3,2,1,
{4}8x-3[8:1]/5x,7-4[8:1],{8}2,2,5,5,6-2[8:1]/1,{16}1,2,{8}3,3h[8:5],1,,{16}1,8,7,6,
{4}5-1[8:1],2-5[8:1],{8}6,6,4,4,3-7[8:1]/8,{16}8,7,{8}6,6h[8:1],8b,1b/5b,{4}2b/4b,
1x-5[8:1],6-1[8:1],{8}2,2,8,8,7-3[8:1]/4,{16}4,3,{8}2,2,4/1^4[8:1],,{16}4,5,6,7,
{4}8x-4[8:1],3-8[8:1],{8}7,7,1,1,2-6[8:1]/5,{16}5,6,{8}7,7,{16}85,4,3,2,15,6,7,8,
{4}1x-6[8:1]/4x,2-5[8:1],{8}7,7,4,4,3-7[8:1]/8,{16}8,7,{8}6,6,8/5^8[8:1],,{16}8,1,2,3,
{4}4-8[8:1],7-4[8:1],{8}3,3,5,5,61,25,34,56,78,,{4}2b/6b,
1xv4[8:1]/7x,1/6-2[8:1],{8}36,3,1,1,8^5[8:1]/4,{16}4,3,{8}2,2h[8:5],4,,{16}4,5,6,7,
{4}8xv5[8:1],8/3-7[8:1],{8}63,6,8,8,1^4[8:1]/5,{16}5,6,{8}7,7h[8:1],{16}5,4,3,2,14,5,6,7,
{4}4xv1[8:1]/8x,4/7-3[8:1],{8}27,2,4,4,5^8[8:1]/1,{16}1,2,{8}3,3h[8:5],1,,{16}1,8,7,6,
{4}5v8[8:1],5/2-6[8:1],{8}72,7,5,5,4^1[8:1]/8,{16}8,7,{8}6,6h[8:1],8b,4b/5b,{4}1b/3b,
1x/8xv5[8:1],8/3-7[8:1],{8}36,6,8,8,1^4[8:1]/4,{16}4,5,6,7,{8}8,5/8^5[8:1],,{16}5,4,3,2,
{4}1v4[8:1],1/6-2[8:1],{8}63,3,1,1,8^5[8:1]/5,{16}5,4,3,2,1,,41,5,6,7,85,4,3,2,
{8}1bx/5bx,15,26,26,37,37,48,48,1bx/5bx,15,48,48,37,37,26,26,
{16}1bx,5,2,6,3,7,4,8,5bx,1,4,8,3,7,2,6,{8}1bx/5bx,24,18,57,45,13,45,68,{1}2b/7b,,,,E
Re:MASTER
- 追加しました。修正等ありましたらよろしくお願いします。 -- けもがみ (2023-08-13 18:18:38)
最終更新:2026年05月24日 14:35