BASIC
ADVANCED
EXPERT
MASTER
(200)
{2}1h[4:1],2h[4:1],3h[4:1],4hx[4:1],5h[4:1]/Ch[2:3],6h[4:1],7h[4:1],8h[4:1],
{4}18,6h[8:3],{8},5,{4}47,81,3h[8:3],{8},4,{4}52,8,6h[8:3],{8},5,{4}4/7V58-4[4:3],2,2,1,1,1b,
{8}1,5,1,5,1,5,1,3,1,6,1-5[8:1],5,1x,,8,,8,5,8,5,8,5,8,4,8,6,8-4[8:1],3,8x,,
{4}2hbx[8:1],2h[8:1],3h[8:1]/4,3h[8:1]/5,4hbx[8:1]/5,4h[8:1]/7,5hbx[8:1]/6,5h[8:1]/7,
4bhx[8:1]/7,3bhx[8:1]/5bhx[8:1],2bhx[8:1]/6bhx[8:1],1bx-6[8:1],{4}5h[4:3],,,4>5[8:5],{1}Cf,
{8}5,5,4,4,35,{16}2,4,{4}2bx-7[8:1],6-3[8:1],4-1[8:1],8-5[8:1],3-6[8:1],7-2[8:1],1-4[8:1],6h[4:1],
{16}5,,,6x,{4}6x-4[8:1],3-7[8:1],8-2[8:1],4-8[8:1],8w4[8:1],,2bx/6bx,3x/7x,
{8}45,{16}6,5,{4}6h[8:1],5h[8:1]/7h[8:1],3h[8:1]/4h[8:1],5h[8:1]/7h[8:1],5h[8:1]/7h[8:1],
{8}4,4,45,{16}3,4,{8}2,2,1-5b[8:1],8,{2}7hbx[2:1],{8}5-8[8:1],5,6,,1-4[8:1],1,4,,
3b/7b,,56,7,46,3,57,8h[16:1],57,4,56,7,46,3,4/6-8[8:1],,1bx,,34,5,24,1,24,
5h[16:1],4h[16:1]/6h[16:1],4h[16:1]/6h[16:1],3h[16:1]/7h[16:1],
3h[16:1]/7h[16:1],2h[16:1]/8h[16:1],2h[16:1]/8h[16:1],1bx/7bx,,
1bx/8bx,{16}2,4,{4}3-7[8:1],6-2[8:1],8-4[8:1],3-8[8:1],5-2[8:1],7bx-4b[8:1],1bx,3bx/5bx,
{8}28,28,{2}5bhx[4:1]/6bhx[4:1],{16}3,4,3,4,{8}3,25,34,25,6^1[8:1]/1,,
5b,4,3,3,2/4-6[8:1],1,2,3,4-8[8:1],7,6,5,{4}1^4[8:1]/4,6^1[8:1],5b,{8}3,3,24,1,26,7,
8bv3[8:1]/4,,2,2bv5[8:1],,8,7,,7b-1[8:1],7,3-5[8:1],3,6-2[8:1],6,1-7[8:1],1,
6b-4[8:1],6,2-8[8:1],2,7-3[8:1],7,4-8[8:1],4,7b^5[8:1],7,3^1[8:1],3,8b-4[8:1],8,3,3,
3b/5b,6,78,1,2-5[8:1]/4,5,{4}6V82V46<5[1:6],{1}Cf,,,,,,,
1h[4:19],{4}B5,B6,B7,B8,B1,B2,B3,B4,E5,E6,E7,E8,E1,E2,E3,E4,
1/D5,1/D6,1/D7,1/D8,1/D1,1/D2,1/D3,1/D4,1/D5/E5,1/D6/E6,1/D7/E7,1s5[4:3]/D8/E8,{1}Ch[2:1],
{8}8hx[2:7],,,5,5,,6,6,,4,{4}4V25[4:1],,,{8}6,6,,4,4,,B5,,6,6,,4,{4}4-2[8:1],6-4[8:1],
{8}1hx[2:7],,,4,4,,3,3,,5,{4}5V36[4:1],,,{8}5,5,,3,3,,B4,,5,5,,3,{4}3-5[8:1],2,
{8}3/6hbx[4:5],,,5,5,,3,3,,4,{2}4-2[8:1]*-6[8:1],{8}1hx[8:5]/7x,,6,6,,5,{2}5-7[8:1]*-3[8:1],
{8}8,8h[4:1],,1,27,,5/4h[1:2],,{2}5^7[8:1],5^3[8:1],5-7[8:1],
{4}5,5-1-3[2:1],4,3-7[4:1],7V15[2:1],1,2b,3b,4b,4hb[8:1]/5hb[8:1],
3/6h[4:1],{8}4h[4:1],5,6h[4:1],5,4h[4:1],5,7h[4:1],5,3-6[8:1],5,{4}36,7x/8x,
1/2h[4:1],{8}4h[4:1],3,2h[4:1],3,4h[4:1],3,1h[4:1],3,5h[4:1],3,1-6[8:1],3,{4}15,
8hx[4:1],{12}4,5,6,7,8,1,2,3,4,5bx,6,7,8,1,2,3bx,4,5,6,7,8,
{32}E1,E2,E3,E4,E5,E6,E7,E8,E1,E2,E3,E4,E5,E6,E7,E8,
D1,D2,D3,D4,D5,D6,D7,D8,A1,A2,A3,A4,A5,A6,A7,A8,{2}A1/Cf,{8},
8x,{4}8x-2[4:1],2-7[4:1],7-3[4:1],3-6[4:1],6-4V63[4:3],4,6,3,
{4}2hbx[1:2],4hx[8:1],4h[8:1],6h[8:1],6h[8:1],4hx[8:1],4h[8:1],6hx[8:1],6h[8:1],
3h[8:1]/5hx[8:1],2hx[8:1]/4h[8:1],1h[8:1]/5hx[8:1],2hx[8:1]/6h[8:1],
3h[8:1]/7hx[8:1],4x-2b[4:1]*pp4b[4:1],,,
1bx/2bx,5bx/6bx,3bx/4bx,{8}2bx/7bx,2bx/7bx,{16}1bx,{32}8bx,1bx,8bx,1bx,8bx,1bx,8bxh[16:1],,,,
1bx,2bx/8bx,3bx/7bx,4bx/6bx,{16}5bx,,,,3bx/6bx,,,1bx/8bx,1bx/8bx,,2bx/4bx,,5bx/6bx,,
7bx,8bx,{8}7bx-3b[8:1],,1bx^4b[8:1]*^6b[8:1],1bx,1x,,{2}5xw1b[8:1],
{8}2x/8x,,47,47,{16}6,5,6,,4,5,4,,6,5,6,,3,5,4,,7,5,7,,3,5,3,,4,4,4,,
35,,26,,2,1,3,,7,8,6,,2,4,3,,6,4,6,,3,5,3,,4,4,4,,{8}3x/5x,,
6,6,5,5,4,4,3,3,7,7,5,5,4,4,2,2,18,18,27,27,36,36,{4}4/5h[1:1],1x,2x,{8}3x,
1b,{4}1b-4[8:1],1-6[8:1]/8,1b-3[8:1]/2x,1b-7[8:1]/7x,1b-4[8:1]/2x,1b-5[8:1]/6x,1b/3x,
{8}4b/6bx,3bx/7b,2b/8bx-3[8:1],1bx/7,{4}8b-6[8:1]/6x,8b-2[8:1]/2x,8b-5[8:1]/7x,8b-3[8:1]/3x,
8b-4[8:1]/6x,8b/4x,{8}3b/5,2/6b,1b/7,{16}1b,8b,{4}1b-3[8:1],1b/4-8[8:1],4b/7-5[8:1],
7b/1-3[8:1],1b/4-8[8:1],4b/5x,2bx^7[8:1]/6bx^3[8:1],2bx/6bx,
{8}4bx/8bx,15,2bx/6bx,37,{16}4hbx[8:1]/8hbx[8:1],,,4h[8:1]/8h[8:1],,,37,,
2hbx[8:1]/6hbx[8:1],,,2h[8:1]/6h[8:1],,,{8}35,4hbx[4:1]/6,,{16}8^3[8:1],7,6,5,
{4}8bv5[8:1]/4x,8bv3[8:1]/1x,8b^5[8:1]/7x,8b^3[8:1]/2x,8b-4[8:1]/6x,8b/1x,{8}2,2,{16}2/1^4[8:1],8,7,6,
{4}1b-6[8:1]/5,1b-5[8:1]/3x,1b/7x,{8}46,46,3bx/7bx,2bx/6bx,1bx/5bx,2bx/6bx,3bx/7bhx[4:1],,{16}4,3,2,1,
{8}8bx-5b[8:1]/6bx,7bx,8b-3b[8:1]/2,1,8b-4b[8:1]/6,7,8b-2b[8:1]/2,1,
8b-5b[8:1]/5,6,8b-4b[8:1]/3,2,8b/6,7,8,8,37,37,26,26,{16}1,5,1,5,1,5,1,5,
{32}1bx,8,7,6,5,4,3,2,1bxw5b[8:1],8,7,6,5,4,3,2,{4}1bx,{1}B2/B3/B4/B8/B7/B6/A3/A7/Cf,,,,E
Re:MASTER
- 追加しました。修正等ありましたらよろしくお願いします。 -- けもがみ (2023-08-14 12:06:07)
最終更新:2026年04月11日 21:36