アットウィキロゴ

Trrricksters!!

アーティスト s-don vs. 翡乃イスカ

BPM BASIC ADVANCED EXPERT MASTER Re:MASTER
155 6 8 12+ 14 -

EXPERT MASTER Re:MASTER
譜面制作者 みそかつ侍 サファ太 vs -ZONE- SaFaRi -

BASIC


ADVANCED


EXPERT


MASTER

(155)
{64}1b/8b,2x/7x,3x/6x,4hx[64:93]/5x,,,,,{8},{4},,E5,E4/D4,E6/D6,{8}8x,8h[16:3]x,{16},1bx,,,
{64}8b/1b,7x/2x,6x/3x,5hx[64:45]/4x,,,,,{8},,4,{2}4h[4:1],
{16}2bx,4bx,2bx,4bx,2bx,,7bx,5bx,7bx,5bx,7bx,,{4}4b-1[8:1]/8b-5[8:1],48,
2h[8:1]/6h[8:1],2h[8:1]/5h[8:1],2h[8:1]/4h[8:1],3h[8:1]/5h[8:1],2h[8:1]/4h[8:1],{8}35,
{16}3bx/5bx,,,5bx/6bx,,,{4}3hbx[8:1]/7hbx[8:1],3h[8:1]/7h[8:1],4h[8:1]/6h[8:1],4h[8:1]/5h[8:1],
{32}4,3,2,1,8,7,6,5,4,3,2,1,8,7,6,5,4,3,2,1,8,7,6,5,{8}8bx,,

3h[4:1]/5,4,5h[4:1],4,{16}2,4,2,,5,3,5,,{8}6h[4:1]/4,5,4h[4:1],5,{16}7,5,7bx,,4,6bx,{8}4,
2h[4:1]/5bx,4,5h[4:1],3,{16}2,4,2,,7,5,7,,{8}4h[16:1]/6h[16:1],4h[16:1]/6h[16:1],
5h[16:1]/3h[16:1],5h[16:1]/3h[16:1],4h[16:1]/6h[16:1],3h[16:1]/7h[16:1],2x/8x^5[8:1],,
1b,1,{16}2,4,,4,3b,,48,,7,5,,5,{8}6b,6,1b/4,3,{16}8b/5,7,6,5,4/1b,2,3,4,
{1}5v4V28V61[8:5]/6h[1:1],{4}1x,3/8x,{8}1x-5[8:1]/6,7,8/1x,,

{16}6,6,4,4,5,5,3,3,{4}7hx[4:1],{16}1bx,8bx,1bx,8bx,{4}Cf,
{16}7h[8:1]/8h[8:1],,,1h[8:1]/6h[8:1],,,25,,3xV15[4:1],4x,3x,4x,{8}3x,6x,7bxV51[4:1],,4x/7x,3x,
2hx[4:1],,{16}B4/B5/E5,,,7x/C,,,1hx[8:1]/8hx[8:1],,,2x/7x,,3,{8}4,35,26,26,{16}7,7,1,1,
{32}E6,E5,E4,E3,E2,E1,E8,E7,{8}E6/Cf,,2b/8b,{16}1b,1b,1b,1b,1b,1b,
{8}2x/8x,3x/7x,4bx/6bx,3bx/7bx,{16}1z5[8:1],8,1,8,{4},{16}8z4[8:1],1,8,1,{4},
{16}3,5,3,5,4,6,4,6,4,5,4,5,{4}2x-8[8:1]/6x,

{16}2b-6[8:1]/5b,,4,4,2^5[8:1],,7,,2,,7,8,6,1,5,2,7-3[8:1],,5,5,7^4[8:1],,1,,7,,2,1,3,8,4,7,
5,5,6,6,1h[8:1],,4,4,3,3,{24}8h[8:1],,,1,2,3,{8}4x/7x,5x/6x,4x/5x,
{16}4x/3x,4x/3x,,2x-4[16:1]/5x-1[16:1],,,{4}2x/5x,{24}8,7,6,{8}5bx/1bx,34,2h[8:1]/5,
{16}7,3,6,3,5,3,4,3,4,3,5b,3,1,3,4b,3,8,3,5b,3,1,3,7b-3[8:1],2,8,1,{4}7,
{16}1bx,1bx,,2bx/8bx,,3bx/7bx,,4bx/6bx,4bx/6bx,,3bx/5bx,,
{4}2h[8:1]/4h[8:1],3h[8:1]/5h[8:1],{8}45,45,{16}4,5,4,5,

{8}3-1[8:1],7,6/3x,5,3-1[8:1]/4,7,6/3x,5,3-8[8:1]/4,7,6/3x,5,3-8[8:1]/4,5,6/3x,6,
6-8[8:1]/1,2,3/6x,4,6-8[8:1]/5,2,3/6x,4,6-1[8:1]/5,2,3/6x,4,28,28,
{16}7x,1,7,1,7,6,5,8,7,6,8h[8:1],,2,3,4,1,2,3,1h[8:1],,7,6,5,8,7,6,8h[8:1],,2,3,4,1,2,3,1h[8:1],,
8,2,8,2,7,3,7,3,6hx[32:1],4hx[32:1],6hx[32:1],4hx[32:1],5hx[32:1],5hx[32:1],5hx[32:1],5hx[32:1],
{4}5x-3[8:1],5x-7[8:1],5x,1bx/8bx,

{8}2h[16:1]/8h[16:1],3h[16:1]/4h[16:1],4h[16:1]/5h[16:1],5h[16:1]/6h[16:1],
7h[16:1]/1h[16:1],6h[16:1]/5h[16:1],5h[16:1]/4h[16:1],4h[16:1]/3h[16:1],
2,13,6x^3[8:1],57,{4}1bx-5[8:1],8h[4:1],5bx,{16}47,,,25,,18,,27,27,,45,,
{4}5hb[8:1]/6hb[8:1],{16}4hb[8:1]/3hb[8:1],,,2b/5b,{8},,B3/B4/E4,B6/B7/E7,1b,1b,
{32}1hbx[8:1]/8b,7x,6x,5x,,,,,1hbx[8:1]/2b,3x,4x,5x,,,,,1hbx[8:1]/8b,7x,6x,5x,,,,,
8hbx[8:1]/2b,3x,4x,5x,,,,,1hbx[8:1]/7b,6x,5x,4x,,,,,{16}1,7,1,7,{4}1-5[8:1],
{2}5-3[8:1]*-7[8:1],4-6[8:1]*-2[8:1],5-3[8:1]*-7[8:1],{8}2,1,8,7,

1b-5[8:1],8-6[8:1],1bx-3[8:1],8-4[8:1],1-6[8:1],8-5[8:1],1bx-4[8:1],8-3[8:1],1-5[8:1],8,1bx,8,
{16}6,4,6,4,5,3,6,2,{4}8bx,{16}57,,45,45,,24,,18,18,,27,,
{4}3hb[8:1]/5hb[8:1],{16}6hb[8:1]/4hb[8:1],,,3b/7hb[16:3],,,8x,,{8}1x/6x,,2bx/7bx,3bx/6bx,
{16}4b,5,5,5,3b,5,5,5,2b,5,5,5,1b,4,2b,4,3b,4,5b,4,6b,4,7b,4,{4}8b-4[8:1],
{2}4-6[8:1]*-2[8:1],5-3[8:1]*-7[8:1],4-6[8:1]*-2[8:1],{8}E7,E6,E4,E3,{1}Cf/1bw5b[4:7],,,,

5h[1:1],4h[1:1],Ch[2:3],{4},,,
{16}1,8,1,8h[4:1],{4}1hx[16:3],{32}2-5[8:1],3,4,,8-4[8:1],7,6,,{8}2,{4}8xw4[8:1],8bx,{16},,
2,1,2,1,{4}3hbx[4:1],{32}E7,B6,B5,E5,E3,B3,B4,E5,{4}7hbx[4:1],{16}1,8,1,8,3x/7x,,
6b,4b,6b,4b,6b,4b,{8}5h[16:1],5h[16:1],5h[16:1]/1x,5h[16:1]/2x,5h[16:1]/3x,5h[16:1]/4x,5h[16:1],5h[16:1],
{16}3,4,3,6,5,6,4h[16:1],,7,5,7,2,4,2,5h[16:1],,3,4,2,6,5,7,1h[16:1],,7,5,6,2,4,3,8h[16:1],,
1,7,1,7,2,6,2,6,{32}1,2,3,4,58,7,6,5,41,2,3,4,58,7,6,5,{1}4h[1:1]/1b,

{4}3h[2:1],D4,5h[2:1],B5,4h[2:1],D5,6h[2:1],B6,{16}E5,B4,B3,E3,A2,,A7,E7,B6,B5,E5,,
2,2,1,,3x/8x,,2x/7x,,6x/1x,6x/1x,,7hx[16:3]/8x,,,{32}1,2,3,4,5w1[8:1],6,7,8,1,2,3,4,{4}A5f,
{16}3bx/7bx,,8,2,8,2,8,2,{32}8,7,6,,{16}3,3,{32}1,8,7,,{16}4,4,{32}2,1,8,,{16}5,5,7,7,1,1,3,3,5,5,
{4}4bx/6bx,{16}34,34,,25,,36,,47,{8}4^1[8:1]/7,3,4x/7^5[8:1],8,7x/3,2,
{16}1,5,1,5,{32}1,8,7,6,5,4,3,2,{4}1xs5b[8:1]/8xz4b[8:1],1b/8b,

{16}26,,7,8,6,1,4,3,6,5,7,4,8,1,4,3,7,5,8,1,4,2,6,4,7-3b[16:1],5,7,5,7,,2-6b[16:1],1,2,1,2,,
7,7,8,,7x/1x,,5x/6x,,2x/4x,2x/4x,,5h[16:3]/1,,,{32}8bx,7,6,5,4w8b[8:1],3,2,1,8,7,6,5,{4}A4f,
{16}6bx/2bx,,1,7,1,7,1,7,{32}1,2,3,,{16}6,6,{32}8,1,2,,{16}5,5,{32}7,8,1,,{16}4,4,2,2,8,8,6,6,4,4,
{4}5bx/3bx,{16}1bx/2b,1b/2bx,,3b/5bx,,4bx/6b,,7bx/8b,7b/8bx,,1b/8bx,,
{32}1,2,3,4,8,7,6,5,2,3,4,5,7,6,5,4,1,2,3,4,5,6,7,8,{4}1b/5bx,

{16}3-8[16:1],4,2,5,3b,,6,,6-1[16:1],5,7,4,6b,,2,,
B3,B7,A4,A6,B4/E5,E8,B1/A1,E6,B2/A2,C,A3/B3,B6,{4}8b,
{16}1,1,1,1,{32}2b/8b,37,46,5,,,,,{16}8,8,8,8,{32}7b/1b,62,53,4,,,,,
1,2,3,4,1,2,3,4,8,7,6,5,8,7,6,5,{16}E1,E2,E3,E4,E5,E6,E7,E8,{1}E1/Ch[1:1],1w5[4:1],,,,E

Re:MASTER


  • 追加しました。修正等ありましたらよろしくお願いします。 -- けもがみ (2023-08-14 18:33:50)
名前:
コメント:

タグ:

+ タグ編集
  • タグ:
最終更新:2026年04月10日 20:29