アットウィキロゴ

FLUFFY FLASH

アーティスト Kobaryo

BPM BASIC ADVANCED EXPERT MASTER Re:MASTER
252 6 8 12+ 14 -

EXPERT MASTER Re:MASTER
譜面制作者 ロシェ@ペンギン はっぴー -

BASIC


ADVANCED


EXPERT


MASTER

(252)
{4}2-8[8:1]/6-4[8:1],26,,{8}15,1h[4:1]/5,,{4}3,2h[4:1]/4h[4:1],,{8},
{4}7-1[8:1]/3-5[8:1],73,,{8}84,8h[4:1]/4,,{4}6,7h[4:1]/5h[4:1],,{8},
{4}2-8[8:1]/6-4[8:1],26,,{8}15,1h[4:1]/5,,{4}3,2h[4:1]/4h[4:1],,{8},
{4}7-1[8:1]/3-5[8:1],73,,{8}84,8h[4:1]/4,,{4}6,75,{8}26,
{1}2pp6pp3[2:5]/6h[1:3],,,{4},A4f/B4/B5,A6f/B6/B5,

1x/8x,37,37,47,{8}57,5,{4}57,47,{8}37,3,{4}37,6-1[8:1],5,3h[4:1],{8}4,4,,26,26,26,,37,37,,
{4}8x/1x,62,52,{8}42,4,{4}42,52,{8}62,6,{4}62,3-1[8:1],4,6h[4:1],{8}5,4,37,37,,2-6[8:1]/6,,7,7,,
{4}1x/8x,37,4/8-6[8:1],58,5/8-2[8:1],48,3/8-6[8:1],38,{8}2h[8:1],5h[8:1],1h[8:1],4h[8:1],
2h[8:1],5h[8:1],3h[8:1],6h[8:1],4h[8:1],7h[8:1],5h[8:1],8h[8:1],4,4,36,,
{4}8x/1x,62,5/1-3[8:1],41,4/1-7[8:1],51,6/1-3[8:1],61,
{8}7x,7x,2x,2x,{16}1,8,1,8,1V73-5[4:3],8,1,8,{1}1,

{2}6V82-4^1-5[4:5],5,5,4,4V28-6^1-5[4:5],5,5,4,6V82-4^1-5[4:5],5,5,4,3V17-5^8-4[4:5],4,4,5,
{4}34,3/4-8[2:1],3,3,4,5,8h[2:1],6,5,5-1[2:1],6,6,5,4,1h[2:1],3,4,
4-8[2:1],3,3,4,5,8h[2:1],,1,{8}27,,,{4}4/5pp6[8:5],45,,{8},{4}1-4[8:1],1x,

{8}6,5,4,{4}3^6[8:1]/7^2[8:1],37,{8},2,1,8,3/7h[4:1],,1x,1x,,
{4}2-6[8:1],1-5[8:1],8-4[8:1],7-3[8:1],2-6[8:1],1-5[8:1],8,72,
{8}3,4,5,{4}6^3[8:1]/2^7[8:1],62,{8},7,8,1,6/2h[8:7],,4,4,,
{4}A5/E6/A6,A4/E4/A3,7h[1:1],4,A5/E6/A6,A4/E4/A3,2x,1x/8x,

{8}6,5,4,{4}3^6[8:1]/7^2[8:1],37,{8},2,1,8,3/7h[4:1],,1x,1x,,
8,8h[8:1],4,4h[8:1],6,6h[8:1],2,2h[8:1],4,4h[8:1],8,8h[8:1],{4}5,27,
{8}3,4,5,{4}6^3[8:1]/2^7[8:1],62,{8},7,8,1,6/2h[4:1],,4,4,,
45,45,45,45,36,36,36,36,27,27,27,27,{16}1,8,1,8,1,8,1,,{1}2V86-4p3>4[4:13]/7h[1:6],,,,
{8}5x,5,5,5,5x,5,5,5,5x,5,5,5,5x,5,5x,5,{2}5x-2[8:1]*-8[8:1],1x-6[8:1]*-4[8:1],
5x^2[8:1]*^8[8:1],B4/B6/Cf,1bx/8bx,

5h[8:1]/7h[8:1],5h[8:1]/4h[8:1],2h[8:1]/4h[8:1],{1}2p3[4:1]/4h[2:1],7q6[4:1]/5h[2:1],
{2}A3/B3/E3/A7/B7/E7f,4h[8:1]/2h[8:1],4h[8:1]/5h[8:1],7h[8:1]/5h[8:1],
{4}7h[4:1]/3,5h[4:1],B1/E1/E2,2h[4:1],4h[4:1],B8/E1/E8,{2}2x/6x,E4/E5f/E6,
1V72v3[4:3]/4h[1:1],,,{4}45,4h[2:1]/5>1[4:1],,,54,5h[2:1]/4<8[4:1],,,{2}E4/E5f/E6,
8V27v6[4:3]/5h[1:1],,,{4}34,56,{8}4,4,5,5,36,36,{4}2bx/7bx-3[8:1],,,

2>6[4:3],,7,,8h[8:3],{8},7h[8:3],{4},6,
{2}5^6v8^1[4:3],3,4^3v1^8[4:3],5,{4}6^3[2:1],,,2^7[2:1],,,
6h[2:1],,5-8[4:1],3,1-4[4:1],,,3h[2:1]/8-5[4:1],,,
{8}4/7h[4:1],,5,5-1[8:1],,3,3,,5/2h[4:1],,4,4-8[8:1],,6,6,,
4/7h[4:1],,5,5-8[8:1],,1,1,,5/2h[4:1],,4,4-1[8:1],,8,8,,
{4}5/7h[4:1],1,4/2h[4:1],8,4/7h[4:1],8,5/2h[4:1],1,{8}46,7,8,,53,2,{4}1>8[2:1],{1}Cf,

{4}1h[4:1],4h[4:1],3h[4:1],{8}5,5,,46,46,,{4}28,37,4h[2:3]/6,E4,E3,E2,E6,E7,E8,E5,
{4}8h[4:1],5h[4:1],6h[4:1],{8}4,4,,53,53,,{4}71,62,5h[2:3]/3,E6,E7,E8,E4,E3,E2,E5,
6h[1:1],4,5x,4,3h[1:1],5,4x,5,6h[1:1],4,5x,4,3h[1:1],5,4x,5,7h[1:1],4,5x,3,2h[1:1],5,4x,6,
{8}7,7,3,3,6,6,4,4,5,5,3,3,4,4,2,2,{2}8bz4b[4:3],,,{4}4x/5x,1b/8b,

{8}2-5[8:1],2,6-1[8:1],6,3,3,24,24,,35,3>7[4:1]/5,,7V13[4:1],,4,,6,,
7-3[8:1],7,8-4[8:1],8,1-5[8:1],1,2-6[8:1],2,{4}4-8[8:1],8w4[8:1],,
{8}7-4[8:1],7,3-8[8:1],3,6,6,75,75,,64,6<2[4:1]/4,,2V86[4:1],,5,,3,,
2-6[8:1],2,7-3[8:1],7,1-5[8:1],1,8,8h[4:1],,5,{32}D4,D3,D2,D1,D8,D7,D6,D5,{8}D4,,

8-4[8:1],8,3-7[8:1],3,6-2[8:1],6,1-5[8:1],1,4-8[8:1],4,2-6[8:1],2,7,7,{16}5,4,3,2,
{8}1-5[8:1],1,6-2[8:1],6,3-7[8:1],3,8-4[8:1],8,5-1[8:1],5,7,7,2h[8:1]/8h[8:1],,4h[8:1]/6h[8:1],,
3-6[8:1],3,7-2[8:1],7,4-1[8:1],4,8-5[8:1],8,2-5[8:1],2,6,6,3,3,7,7,
{16}1,8,1,8,1,8,1,8,2,7,2,7,2,7,2,7,1,8,1,8,1,8,1,8,
{32}1,2,3,4,5,6,7,8,1,2,3,4,5,6,7,8V27-3-6-4[32:81],{1}1h[4:15],,,{4},,,6b,

{8}48,37,2-5[8:1]/6-1[8:1],,{2}2x/6x,{8}D2/E2/B2/B3/E4/D4f,,,D8f/E8/B7/B6/E6/D6,,1h[4:1]/5h[4:1],,,
51,62,7-4[8:1]/3-8[8:1],,{2}7x/3x,{8}D8/E8/B7/B6/E6/D6f,,,D2f/E2/B2/B3/E4/D4,,8h[4:1]/4h[4:1],,,
48,37,2-7[8:1]/6-3[8:1],,{2}2x/6x,{8}D3/E3/B3/B4/E5/D5f,,,D1f/E1/B8/B7/E7/D7,,1h[4:1]/5h[4:1],,,
51,62,7-2[8:1]/3-6[8:1],,{2}7x/3x,{8}3h[4:1]/5h[4:1],,,35,,71,71,,
{16}2,6,2,6,2,6,2,6,2,6,2,6,2,6,2,6,3b,7b,3b,7b,3b,7b,3b,7b,4b,8b,4b,8b,4b,8b,4b,8b,
{1}A1/B1/Cf/B5/A5,,,,E

Re:MASTER


  • 追加しました。修正等ありましたらよろしくお願いします。 -- けもがみ (2023-08-14 22:35:15)
名前:
コメント:

タグ:

+ タグ編集
  • タグ:
最終更新:2023年08月14日 22:35