アットウィキロゴ

LAMIA

アーティスト BlackY

BPM BASIC ADVANCED EXPERT MASTER Re:MASTER
199 6 8 13 14+ -

EXPERT MASTER Re:MASTER
譜面制作者 鳩ホルダー 譜面ボーイズからの挑戦状 -

BASIC


ADVANCED


EXPERT

(199){1},,,,1b>4[4:5],,5<8[4:5],,{1}2h[1:1],4h[1:1],5h[1:1],7h[1:1],{8}1,,2,2h[4:1],,3,3h[4:1],,4,4h[4:1],,5,5,,4/6,,5/6,,7,7h[4:1],,6,6h[4:1],,5,,5/6,,4/5,,3/4,,2,2,4,4,3,3,7,7,5,5,6,6,2,2,7,7,{16}1x,8,1,8,1,8,1,8,2,7,2,7,2,7,2,7,{1}1s5[2:1]b*-5[2:1]b,

{8}3b/6b,,1,2/4,,8,7/5,,2,3/5,,7,6/4,4h[4:1]/6h[4:1],,,5/6,,8,7/5,,1,2/4,,7,6/4,6/4,,{16}6/5,,,5/4,,,{8}3h[4:1]/4h[4:1],,,2b/5b,2b/5b,,1,2/4,,5,5,3,3,6,6,4,4,7,6,5,4,3,2,1-5[8:1],,8-6[8:1],,2-4[8:1],,5,,3b/6b,,4/5,,2,2,2/4,2,2/4,2,1/2,2,1/2,2,{16}2/4,,,3/5,,,4/6,,{8}4/6,,7,7,7/5,7,7/5,7,8/7,7,8/7,7,{16}7/5,,,6/4,,,{8}5h[4:1]/3h[4:1],,,3/4,3/4,,1/2,,7/8,,{16}6,5,6,,4/7,,,,2/5,,,,2/5,,,,3,4,3,,5/2,,,,7/4,,,,8,,8hx[16:3],,,7hx[16:3],,,6hx[16:3],,,5x,,,{4}4bxq1-3[4:3]/5bxp8-6[4:3],,,,,{8}2,2,2/4,2,{16}2x/4x,,,1x/2x,,,1x/8x,,7hx[4:1]/8hx[4:1],,,,,,6h[4:1]/5h[4:1],,,,,,3/4,,,,{8}4,5,6,7,8,1,2,3,4,,6,6,8,8,7,7,3,3,1,1,2,2,4,,{16}6,5,6,5,6,,3,4,3,4,3,,8,1,8,1,{4}8-4[8:1],2-7[8:1],6-3[8:1],1-4[8:1],
{8}8b,,5x/6x,5x-1[8:1]b/6x,,,,2/8,,5/7,5/7,4,3,1/2,1/2,,2b/5b,,4x/3x,4x-8[8:1]b/3x,,,,7/1,,4/2,4/2,5,6,8/7,8/7,,1/8,1/8,7,6,5/4,5/4,3,2,8/1,8/1,2,3,4/5,4/5,6,7,{16}8bx/1x,,,6bx/7x,,,4bx/5x,,,2bx/3x,,,1,,1,,2h[16:3],,,3h[16:3],,,4,,5h[16:3],,,6h[16:3],,,7,,
{1}8b<5[4:5],E1,4>1[4:5],E5,{4}2h[1:1],,,4,4h[1:1],,,5,5h[1:1],,,7,7h[4:3],,,1,{8}3/5,,6,6h[4:1],,7,7h[4:1],,8,8h[4:1],,1,1,,1/8,,6/4,,3,3h[4:1],,2,2h[4:1],,1,,5/6,,7/8,,3/4,,1,1,4,4,3,3,6,6,5,5,8,8,2,2,7,7,{16}1,8,1,8,1,8,1,8,2,7,2,7,2,7,2,7,{1}1V36[8:3]b*>2-7[8:3]b,

{16}8bhx[8:3]/5bhx[8:3],,,,,,,,6b/7b,,,,5bh[8:1]/6bh[8:1],,,4bh[8:1]/7bh[8:1],,,3bh[8:1]/8bh[8:1],,,,1b-5[8:1]b/2b-6[8:1]b,,,,,,,,,,7bh[4:1]/5b,,,,E6,E5,E4,E3,E2,,,,4bh[8:1]/3bh[8:1],,,5bh[8:1]/2bh[8:1],,,6bh[8:1]/1bh[8:1],,,,7b/8b,,,8bx-3>1[16:7]b/7bx-4<6[16:7]b,,,,,,,,,,,,,,,7bx/8bx,,,,8bh[8:1]/7bh[8:1],,,1bh[8:1]/6bh[8:1],,,2bh[8:1]/5bh[8:1],,,4bh[8:1]/3bh[8:1],,,5bh[8:1]/2bh[8:1],,,,1b/6b,,,,
1bh[8:1]/2bh[8:1],,,8bh[8:1]/3bh[8:1],,,7bh[8:1]/4bh[8:1],,,,5bh[8:1]/6bh[8:1],,,,4b/7b,,{1}4bxp1[2:1]b/7bxq1[2:1]b,{16}1bh[4:1]/7b,,,,E1,E2,E3,E4,E5,,,,,,1bx/3bx,,1bhx[8:1]/3bhx[8:1],,,2bh[8:1]/4bh[8:1],,,3bh[8:1]/5bh[8:1],,,2bh[8:1]/4bh[8:1],,,2b/4b,,,,
1bh[8:1]/2bh[8:1],,,1bh[8:1]/8bh[8:1],,,7b/8b,,,,8bx/6bx,,8bhx[8:1]/6bhx[8:1],,,7bh[8:1]/5bh[8:1],,,6bh[8:1]/4bh[8:1],,,7bh[8:1]/5bh[8:1],,,{8}7b/5bp1[4:1],,,,7,7h[8:1],1,1h[8:1],3,3h[8:1],5,5h[8:1],7,7h[8:1],1,1h[8:1],3,3h[8:1],5,5,4,3,2,1,8,7,6,5,{1}4-7-3-8[4:3],

{1}E5f/B5/B4/Ch[1:2],,,{8},,2/7,,4x/5x,8x-4[8:1]b/1x-5[8:1]b,,,,,3/6,3/6,,5/7,,2/4,2h[4:1]/4h[4:1],,,1/2,1/2-6[8:1],,,,{16}5h[8:1]/7h[8:1],,,1h[8:1]/8h[8:1],,,2h[8:1]/4h[8:1],,,1h[8:1]/8h[8:1],,,1/8,,,,1h[8:1]/3h[8:1],,,4h[8:1]/5h[8:1],,,6h[8:1]/8h[8:1],,,4h[8:1]/5h[8:1],,,4/5x-1>3[8:3]*-1<7[8:3],,,,,,,,,,,,,,,,3b/7b,,3b/7b,,8h[16:3],,,6h[16:3],,,4,,,,3/5,,3/5,,,,{8}1-5[8:1],1,7-3[8:1],7,2-6[8:1],2,8,8,{16}4/7,,,3/6,,,2/5,,2-5[8:1]/5,,,,6,,,,{8}7,7,5,5,{16}E1,E2,E3,E4,E5,,,,{8}2,2,4,4,{16}E1,E8,E7,E6,E5,,,,7,5,7,5,7,,2,4,2,4,2,,1,8,1,8,{4}1-5[8:1],7-3[8:1],1w5[8:1],,

{8}3b/7b,,4/6,4/6,,2/8,3/7,4bh[8:9]/6b,,5,3,2,1,8,7,6,5b,,5/3,5/3,,7/1,6/2,5bh[8:5]/3b,,4,6,7,8,1,2/4,,1-5[8:1],1,8-4[8:1],8,2-6[8:1],2,7-3[8:1],7,1>4[8:1],1,8<5[8:1],8,1-5[8:1],1,,,{16}6b/4,,,3b/5,,,7b/5,,,2b/4,,,1,,1,,1b/8b,,,5b/7b,,,4b/2b,,8b/1b,,,4b/2b,,,5b/7b,,{1}1b>8[4:13]/8b,,,,Ch[1:4],E1,B2/B7,B3/B6,A5/B5/E5/B4/A4,E]

MASTER

(199)
{32}1bV35V71[4:27]/8b,27,36,45,{8},{4},,,{1}1h,2h,3h,4h,5h,6h,7h[1:1],
{8}5hx[2:3],,6,6,,7,7,,8,8,,1,1h[4:1],,5,3,
1h[1:1]/7,,3,3,,5,6,7,{4}8h[4:1],6h[4:1],4h[4:1],2,
{8}14,1,25,2,36,3,47,4,85,8,74,7,63,6,52,5,
{16}1,2,3,4,8,7,6,5,{32}1,2,3,4,5,6,7,8,1,2,3,4,5,6,7s3[16:9],8,{1}1-5-1[2:1],

{8}2x/4x,,24,5,2,5,24,,24,5,1x-5[8:1],5-1[8:1],7b,7b,,,
2^5[8:1]/8x,,6,6^1[8:1],,2,2-6[8:1],,8,8,7-4[16:1],7,
{16}3x-8[16:1],,,5x-1[16:1],,,{8}1x,,,3b/7b,,
3h[8:1]/4h[8:1],,4h[8:1]/5h[8:1],,56,7,18,2,34,5,46,37,
{16}2,1,3,8,4,7,5,6,8,7,1,6,2,5,3,4,{2}Chf[4:3],7-3[8:1],

{8}2b/8b,,71,71,2,34,34,5,46,46,7,28,{16}2-6[8:1]/8,,,1,{8}2,8,75,6,4,
{16}3h[8:1]/5h[8:1],,,3h[8:1]/5h[8:1],,,35,,2,,3h[8:1]/4h[8:1],,,4h[8:1]/5h[8:1],,,{4}56,
{16}65,4,3,2,8,7,{8}6-1b[8:1],,1,2-6[8:1],,2/7v4[8:1],,78,,
1,1,28,{16}3h[16:3]/7,,,4h[16:3],,,5,,5-3[16:1],,,56,,,7-5[16:1],,,78,,,1,,1,,
2h[8:1]/A5/E6,,,7h[8:1]/A4/E4,,,1h[8:1]/B5/B6,,,8/B4/B3,,,7,1,7,1,

{2}8hb[16:9],{16},,17,26,{8}35,1b/7b,,5,4,7,{16}6x/7x,,,4x/5x,,,{8}2x/3x,
2-6[8:1],,1x/2x,8-4[8:1],,7x/8x,6-2[8:1],,5x/6x,4-8b[8:1],,{16}5x,6,7h[16:3],,,1h[16:3],,,
{8}8,1/7x,1,2/4x,2,3/8x,3,4/6x,4,5/3x,5,6/1x,6,7/5x,7,8/2x,8,
{16}2,1,2,1,3h[8:1],,7,8,7,8,5h[8:1],,4,6,3,7,{4}1-5[8:1],1^4[8:1]*^6[8:1],1,2b/8b,

{16}56,,3,4,{8}2,5-8[8:1],7-4[8:1],5x,7x,1x-6-3-8-5-2b[8:5],,4,{4}4h[2:1],,,
{16}15,,6,5,{8}7,4-1[8:1],2-5[8:1],4x,2x,8x-3-6-1-4-7b[8:5],,5,{4}5h[2:1],,,
{16}48,,2,1,2,1,4,,7,8,7,8,5,,3,4,2,5,1,6,8,7,1,8,2,1,3,8,4,7,5,6,
2x,3,4,5/8x,7,6,5/3x,2,1,8/7x,6,5,2x,3,4,5,6/8h[16:3],,,7h[16:3],,,6,,
4h[16:3],,,3h[16:3],,,2,,{1}1-4-8-5[4:11]*-6-2-5[4:11]/Cf,,,,

3h[1:1],4h[1:1],5h[1:1],6h[1:1],
{8}Ch[4:11],,8,8,,7,7,,6,6,,5,5,,4,,5,,B6,B5,,B7,B8,,{4}D1,A2/A7,E4/E6,D5/E5,
{8}6x,6,6,6,64,4,4,4,4/2x,2,2,2,28,8,8,8,{16}7,1,7,1,6,1,6,1,5,1,5,1,
{32}4,3,2,1,8,7,6,5,{4}4h[8:3]/8h[8:3],,2x/6x,1bxs5[8:1]`8xz4b[8:1],E1f,,

1x/8x-4[16:1],{16}8b/2b-5b[16:1],,,6b-1[16:1],,,3b-8b[16:1],,,7b,,,{4}1bx,
4bxq1[4:1]`5xp8b[4:1],E5f,,8x/1x-5[16:1],{16}1b/7b-4b[16:1],,,3b-8[16:1],,,
6b-1b[16:1],,,2b-5[16:1],,,{4}8bx,{16}7>5b[8:3],6,5,,{4}A7f,,8-4[16:1],
{16}8b/1b-6b[16:1],,,3b-8[16:1],,,5b-2b[16:1],,,7b-4[16:1],,,1bx-5b[16:1],,,6,,,8,,
7h[8:1]/8hbx[8:1],,,5hx[8:1]/6hbx[8:1],,,3hx[8:1]/4hbx[8:1],,,1hx[8:1]/2hbx[8:1],,,
{32}8z4[4:3],7,6,5,,,,,{4}8b,,,5<4b[2:1],Cf,,,

{16}1,,1h[8:1]/B6f,,,7h[8:1]/E3f,,,3h[8:1]/E8f,,,5h[8:1]/E4f,,,2x,,{24}1x/2x,3x,4x,5x,,,
{16}8h[8:1]/E5/B5f,,,2h[8:1]/E7f/B7,,,6/E1f/B1,,3x,5x,3x,5x,
4b-8[16:1],,,6b-3b[16:1],,,2b-7[16:1],,,5b-1b[16:1],,,{2}1w5[8:1],
{8}3x/7x,37,56,56,34,34,26,26,7x/8x,16,25,34,56,47,38,12,
{16}3x,4,2,5,1,6,8,7,5x,6,4,7,3,8,2,1,
{4}4^1[4:1],1^6[4:1],6x^4[8:1],1w5[8:1],{1}1b/B1/Cf/B4/B5/B6,,

{8}8h[8:3]/1,,,{16}3,2,1,8,7,6,5,4,3,2,
{4}1-4b[8:1]/8-5b[8:1],1/8/D3/E3/B3/Cf/B6/E7/D7,{8}18,2-5[8:1]/7-4[8:1],,2b/7b,,,
45,2-6b[8:1]/7,1,7-3[8:1],8,1hb[4:1],,{32},28,37,46,5b,,,,
{4}4x^1[8:1]/6x^1[8:1],6-4[8:1]/4,4x/6,{16}2,1,3,,8x^5[8:1]/4,,,,8,,2,4,2,4,
3hb[8:1],,,1hb[8:1]/8hb[8:1],,,5bh[8:1]/6hb[8:1],,,2b/4b,,1,8<2b[8:3],2,8,2,{2}8b,

{16},,1,8,{8}2b/7b,2^5[8:1]/7,,{24}5,6,7,{4}8b,{16}2x/8x,,6,5,,2,4,,15,,
2,6,3,7,4,8,5-1[8:1],7,,4,45,,3,,2,2h[8:1],,1,2,8,3,7,4,6,5,6,4,5,3,4,3b,,
1,8,2-5[8:1],7,3,6,{8}2-8[8:1],8,2,6,{16}7,1,7,1,{8}6-2[8:1],3,6,1,8,37,
{16}6h[4:1]/5,4,3,2,1,,1h[4:1]/8,7,6,5,4,,3h[4:1]/4,5,6,7,
{4}8-4[8:1],3^8[8:1]/8^5[8:1],3/8w4b[8:1],8x,

{16}1b/7b,,3,4,{8}3,2x-6[8:1]/5,6,2/7x^4[8:1],8,7/1x,,23,45,67,{16}8,7,6,5,2,4,3,4,1b,,
6,5,{8}6,7x-3[8:1]/4,3,7/2x^5[8:1],1,2/8x,,76,54,32,{16}1,2,3,4,7,5,6,5,8b,,
2,4,3,7,5,6,4,5,3,4,2,5,1,6,8x,1,2,3,45,6,7,8,12,3,4,5,8,7,6,5,
3b,4,2,6b,5,7,2b,1,2,7b,8,7,2b,6,2b,6,
{24}2bx,3,4,5,1bx,8,7,6,5,4x/2x,,,7bx/3bx,6,5,4,8bx,1,2,3,4,5x/7x,,,
{1}6bxqq3b[4:13]`2bxqq7[4:13],,,,

8h[1:4]/Ch[1:4],B1,B3/B4,B5/B6/E6,B7/B8/E8/E1,,,,E

Re:MASTER


  • 追加しました。修正等ありましたらよろしくお願いします。 -- けもがみ (2023-09-02 08:20:04)
  • EXPERT譜面を追加しました。修正等ありましたらよろしくお願いします。 -- Sugar (2026-03-05 14:56:57)
名前:
コメント:

タグ:

+ タグ編集
  • タグ:
最終更新:2026年03月05日 14:56