BASIC
ADVANCED
EXPERT
MASTER
(152)
{8}7b`B7f,2b`B2f,8b`B8f,{96}1b,B1,Cf,B5,,,{16},{4},,
6h[8:1]/4,6h[8:1]/B5`E5,6h[8:1]/4,6h[8:1]/B5`E5,6h[8:1]/4,6h[8:1]/B5`E5,4-8[8:1]/6-8[8:1],,
3h[8:1]/5,3h[8:1]/B4`E5,3h[8:1]/5,3h[8:1]/B4`E5,
1h[8:1]/2h[8:1],8h[8:1]/7h[8:1],{8}1-5[8:1]b/8-4[8:1]b,27,1b/8b,,A2/E3/B2/A7/E7/B7,,
{24}3,,3,5,,5,2,,2,4,,4,{8}1-4[8:1]*-6[8:1],28,1,,
{24}6,,6,4,,4,7,,7,5,,5,{8}8-5[8:1]*-3[8:1],71,8,,
{24}3,,3,4,,4,2,,2,8,,8,1,,,27,,,3,,3,1,,1,8,,8,6,,6,{8}5x-2[8:1]b,5x-8[8:1]b,{2}5x-1[8:1]b,
{24}6,,6,8,,8,1,,1,3,,3,{8}4,25,25,36,{24}7,,7,5,,5,4,,4,2,,2,{8}8,37,
46,7,53,2,45,6,4-7[8:1]/5-7[8:1],3,{4}5-2[8:1]/4-2[8:1],4q5[4:1]/5<4[4:1],,,D8/A8/D1f/A1/D2,
{24}2x,,4,3,,5,2,,4,3,,5,2,,4,3,,8h[8:1],{4}1h[8:1],
{24}7x,,5,6,,4,7,,5,6,,4,7,,5,6,,1h[8:1],{4}8h[8:1],
{24}3x,,5,4,,6,3,,5,4,,6,3,,5,4,,6,3,,,45,,,5x/6x,,5x/6x,,,
{8}7bx-3[8:1]/8bx-4[8:1],1bx/6bx,7bx/8bx,,{24},{4}3h[8:1]/4h[8:1],
{24}3,,3,4,,2,1,,3,4,,2,{8}1,34,{4}6h[8:1]/5h[8:1],
{24}6,,6,5,,7,8,,6,5,,7,{8}8,65,34,2,56,7,24,1,57,8,
1/E7,8/E3,1/E5,{12}3b/6b,3b/6b,,{8}45,2b/7b,,
3-5[8:1]/5,5,6,7,8h[8:3]/E6,E5,E4,,7-5[8:1]/5,5,4,3,2h[8:3]/E5,E6,E7,,
4-6[8:1]/6,6,7,8,1h[8:3]/E7,E6,E5,,24,24,{24}1x/8x,,1x/8x,,,{8}57,57,{24}8x,{8}1x,27,
35,35,2^5[4:1]/4,,E4,E3,E2,,64,64,7^4[4:1]/5,,E5,E6,E7,,
24,24,1^4[4:1]/3,,B2,E1,B7,,{4}8x-4[8:1],8/1-5[8:1],1/8^3[8:1]*^5[8:1],8b,
{8}1x-6[8:1],8,13,{24}2,,2,{8}1^6[8:1],8,13,,2x-5[8:1],3,28,{24}1,,1,{8}2^5[8:1],3,27,,
8-3[8:1],1,86,{24}7,,7,{8}8^3[8:1],1,86,,7-4[8:1],6,71,{24}8,,8,{2}7-2[8:1]*v4[8:1],
{8}1x-6[8:1],8,13,{24}2,,2,{8}1^6[8:1],8,13,,8-3[8:1],1,86,{24}7,,7,{8}8^3[8:1],1,86,,
{24}7,,7,5,,5,6,,6,1,,1,{32}4x,3,2,1,8,7,6,5,4w8[8:1],3,2,1,8,7,6,5,{1}4b`Cf,
(76)
{4}8^5[4:1],2,8^3[4:1],6,8-4[4:1],2,1^4[4:1],7,1^6[4:1],3,
1-5[4:1],7,{12}8^5[4:1],,2,{4}2,{12}8-4[4:1],,6,6,,7,7,,8,{8}8,,
{12}2b/1b-6[12:1],8h[12:1],3h[12:1],{4}1,{12}8b/1b-5[12:1],2h[12:1],7h[12:1],{4}1,
{12}2b/1b-6[12:1],8h[12:1],3h[12:1],{4},{12}8b/1b-5[12:1],2h[12:1],7h[12:1],{4}1,
{12}7b/8b-3[12:1],1h[12:1],6h[12:1],{4}8,{12}1b/8b-4[12:1],7h[12:1],2h[12:1],{4}8,
{12}7b/8b-3[12:1],1h[12:1],6h[12:1],8-5[12:1],7h[12:1],2h[12:1],
8b-4[12:1],1h[12:1],6h[12:1],8^5[12:1],7h[12:1],2h[12:1],{4}8,Chf[4:1],
(152)
B3/B4/E4/E5/B5/B6/E6,
2h[8:1],2h[8:1],3h[8:1]/5,6h[8:1],7h[8:1],7h[8:1],6h[8:1]/4,3h[8:1],
2h[8:1]/4,3h[8:1],2h[8:1]/4,6h[8:1],7h[8:1]/5qq4[4:1],{8}6,6,7b,7b,
56,56,47,4v1[8:1]/7qq5[8:1],{2}56,{8}43,43,52,5pp7[8:1]/2v1[8:1],{2}43,
{8}36,36,{24}4,,5,,,{8}46,46,{24}7<3q8[24:13],{8}5,5,{2},
{4}1h[4:1],4w8[2:1]b,,,{8},{24},,1,{8}8,2b/7b,2x/7x,56,34,
{24}1,,1,8-4[8:1],,5,6,,1,{8}8,3,34,45,56,{24}8,,8,1-5[8:1],,4,3,,8,{8}1,6,
{24}7,,7,5,,5,4,,4,2,,2,8,,8,{8}1,2-5[8:1]/7-4[8:1],18,{4}2b/7b,
{24}1,,1,8,,3,4-8[8:1],,1,8,,3,{8}4,1,2x/8x,56,{24}8,,8,1,,6,5-1[8:1],,8,1,,6,{8}5,8,
7bx/1bx-5[8:1]b,,16,6,5/7b-3[8:1]b,,72,2,
24,{32}1,2,3,4,{8}5,{32}8,7,6,5,{4}4-8b[8:1]/2h[8:1],3b,
{24}2,,2,1,,3,4,,6,5,,7,8-6[8:1],,3,{8}4-8[8:1],8,4,
{24}7,,7,8,,6,5,,3,4,,2,1-3[8:1],,6,{8}5-1[8:1],1,5,
{24}3,,3,4,,2,1,,7,8,,6,5-8[8:1],,2,{8}1-4[8:1],5,1,
{24}8x,,8,3,,3,4,,6,5,,,7b-3[8:1]/8b-4[8:1],,1b/6b,,,7b/8b,{4},
{24}12,,3,4,,6,5,,7,8,,2,1-6[8:1],,3,4-8[8:1],,2,{8}1,4,
{24}6,,6,5,,3,4,,2,1,,7,8-3[8:1],,6,5-1[8:1],,7,{8}8,5,
{24}2,,2,{48}1,E3,B3,B4,,,{8}7,6b/1b,{24}7,,7,{48}8,E7,B6,B5,,,{8}2,3b/8b,
{24}2,,2,4,,4,5,,5,7,,7,{32}2,E3,B3,B4,7,E7,B6,B5,1,E2,B2,B3,8,E8,B7,B6,
{2}1hb[4:1],2h[4:1]/5h[4:1],3h[4:1]/6h[4:1],4h[4:1]/7h[4:1],
{24}26,,26,,,{8}15,48,3h[8:1]/7h[8:1],{24},{8}3b/7b,
{32}3b/7b,48,51,62,73,84,15,26,{1}3b/7bpp8-5[4:7]b,,,,E
Re:MASTER
- 追加しました。修正等ありましたらよろしくお願いします。 -- けもがみ (2023-09-22 20:39:07)
最終更新:2026年04月12日 14:12