BASIC
ADVANCED
EXPERT
MASTER
(151)
{16}5h[16:3],,,4,,,,6,,,6h[16:3],,,5,,,4h[16:3],,,5,,,,3,,,3h[16:3],,,4,,,
6h[16:3],,,5,,,,6,,,7h[16:3],,,5,,,3h[16:3],,,4,,,,3,,,2h[16:3],,,4,,,
6h[16:3],,,5,6,,45,,3h[16:3],,,4,3,,54,,7h[16:3],,,5,7,,46,,2h[16:3],,,4,2,,53,,
7h[16:3],,,5,7,,46,,2h[16:3],,,4,3^6[12:1],,52,,{4}7h[4:3],,,1b,
{16}4,,A8,B8,4,,A1,B1,4,,A7,B7,4,,A2,B2,4,,A5,B5,4,,A3,B3,4,,A6,B6,4,,E3/B3,,
5,,A1,B1,5,,A8,B8,5,,A2,B2,5,,A7,B7,5,,A4,B4,5,,A6,B6,5,,A3,B3,{8}5,,
4x/7x,7h[4:1],3,3h[4:1],6,6h[4:1],2,2h[4:1],5,5h[4:1],1,1h[4:1],4,4h[8:1],8,8,
{16}8,4,8,4,1,5,2,6,3,7,4,8,{24}D4,D3,D2,D8,D7,D6,{16},1,8,1,8,1,,35,,46,,3,5w1[12:1],4,6,5,{4},
3b/7b,{16}28,,7,7,,4,4,,6,5,6,5,6,4,6,3,7,7,,35,,2,2,,4,,3h[8:1]/5h[8:1],,,,
6,6,4,7,3,8,{8}2-4[12:1],1,2/7-5[12:1],8,7/2-6[12:1],1,24,5,48,,
35,3b,4,5,{16}6,4,6,4,5,5,,2,2h[4:1],,4,,5,,6,,7,5,7,5,,
46,,35,,,3,4,3,4,,25,,36,,47,,8,{8}8,27,45,{4}1/8z4[4:1],4w8[12:1]b,,2b/6b,
{8}12,3,{16}48,48,,7,,26,26,,3,4,3,4,3,5,3,6,2,2,,35,,4,4,,56,,6,5,7,,3,5,3,5,,7,
{8}7-5[12:1],8,7/2-4[12:1],1,2/7-3[12:1],8,57,4,25,,37,8b,45,
{16}3,4,3,4,3,5,3,5,3,6,2,{8}2,35,26,17,{16}7,6,5,1,2,3,4,56,,56,,
7,5,7,5,,18,,24,{8}24,57,1-5[12:1],28,1,,{16}5bx/6bx,4,3,2,1bx/8bx,7,6,5,
{4}4h[4:3],3,,{16}3>5[4:3],,,{48}E4,B4,B5,{1}E6,
{4}3h[4:3],{32}B5,E5,,,{8},,,{32}B5,E5,,,{8},6h[4:3],,{32}B4,E5,,,{8},,,{32}B4,E5,,,{8},
6,35,35,{16}2-5[12:1],,3,8-4[12:1],2bx,,,8bx,,,{8}3,64,64,{16}7-4[12:1],,6,1-5[12:1],7bx,,,1bx,,,
7,8,6,1,5,2,4,3,1,2,8,3,7,4,6,,{48}E6,B5,B4,E4,,,{32},,E3,C,{8}E7,{48}A2/A7,A3/A6,A4/A5,D5f,,,{2},
{8}3h[8:3]/6,,,5,{32}5,4,{16},,6,,,{8}3,4h[4:1],,,6,6,5,4,4,{32}4,5h[32:7],,,{8},,,{32}4,5,
{8},46,{16},5,,{32}5,4h[32:7],,,{8},,{16}6,5,{8}4,4,5,5,3h[8:3]/6,,,5,{32}5,4,{8},6,{16},5,,
{32}5,4,{8},4,{16},{8}3,4,5,6,7,{32}1,8h[32:7],,,{8},,1,{32}1,8,{8},6,{16},5,,
{32}4x/6x,3hx[32:7]/7hx[32:7],,,{8},,{32},,A6/A4,D6/D5,{4}5hx[4:1],1b,
{4}6<2[2:1],B1,2>6[2:1],B5,6<2[2:1],B1,2,4,2>6[2:1],B5,6<2[2:1],B1,2>6[2:1],B5,6,8,1b,
{16}47,,2-6[12:1],,4,8-4[12:1],2bx,,,8bx,,,{4}1b,{16}52,,7-3[12:1],,5,1-5[12:1],7bx,,,1bx,,,
7,4,7,4,6,3,6,3,5,2,5,2,{32}4x,5,6,7,8,1,2,3,{16}4bx,,,5bx-1[12:1]/6bx-3[12:1],,,5bx/6bx,,{4},
{8}1b/8b,,18,24,{16}7,5,,{32}8x/E4,A4,{16},1,8,7h[8:1],,5,6,3,4,,{32}1x/E6,A5,
{16},2,2,,4h[8:1]/5,,3,2,1,8,7,6,5,{8}43,43,{16}2,1,,47,,6,{8}57,18,35,
4h[8:1],3h[8:1],{16}2,2,,{32}1x/E6,A5,{16},1-5[12:1],2,3,,1b,,,
6,,57,,2,4,,{32}1x/E6,A5,{16},8,1,2h[8:1],,4,3,6,5,,{32}8x/E4,A4,
{16},7,7,,5h[8:1]/4,,6,7,8,1,2,3,4,{8}56,56,{16}2,4,,{32}1x/E6,A5,{16},2,{8}2,
1b-3[12:1]/8b-4[12:1],27,{4}8b-6[12:1]/1b-5[12:1],1b-3[12:1]/8b-4[12:1],1b/8b,
2b/6b-1[12:1],{8}6/3-7[12:1],4,3/8-4[12:1],1,8/2-5[12:1],3,2/6-3[12:1],7,6/4^1[12:1],5,4/8^5[12:1],7,18,2,
7/3-8[12:1],,3/6-2[12:1],5,6/1-5[12:1],8,1/7-4[12:1],6,7/3-6[12:1],2,3/5^8[12:1],4,5/1^4[12:1],2,81,7,
{4}2-5[12:1]/6-1[12:1],2b/6b,3b/7b,
{16}2,2,,34,,45,,6,6hb[4:1],,8,,8,7,2,1,3hb[4:1],,1,,1,2,7,8,
6hb[4:1],,8,,8x,7x,2x,1x,{8}3hbx[4:1],1x,{4}1-5[12:1],1/2b-6[12:1],2/8b-4[12:1],8/1b-5[12:1],
{16}1/7b,,6,,3,4,1,8,5,6,{32}8x,1,2,3,{8}4,{32}1x,8,7,6,{8}5,34,
{48}2bx/6bx,35,4,,,,,,,7bx/3bx,64,5,,,,,,,{4}1bxpp4[4:1]b/8bxqq5[4:1]b,,{8},
{96}E5,E4/E6,B3/B6,Cf,B2/B7,E2/E8,{1}E1,,,,E
Re:MASTER
- 追加しました。修正等ありましたらよろしくお願いします。 -- けもがみ (2023-09-25 20:58:40)
最終更新:2026年04月05日 14:13