アットウィキロゴ

人里に下ったアタイがいつの間にか社畜になっていた件

アーティスト ねこみりん + nora2r feat. 小宮真央

BPM EASY BASIC ADVANCED EXPERT MASTER Re:MASTER
180 3 5 9+ 13 14 -

EXPERT MASTER Re:MASTER
譜面制作者 rioN 某S氏 -

EASY


BASIC


ADVANCED


EXPERT


MASTER

(180)
{8}8/1h[1:1],,8,7,6,5,4,,{4}3<8[2:3],1,2,3,4,5,6,,
12,78,1/2h[4:1],{8}3,3q6[8:3],{4},1,{8}1,8,{4}8b,87,21,8/7h[4:1],{8}6,6p3[8:3],{4},8,{8}8,1,{4}1b,
43,65,4/3h[4:1],{8}2,2p7[8:3],{4},4,{8}4,5,{4}5b,56,34,5/6h[4:1],{8}7,7q2[8:3],{4},5,{8}5,4,{4}4b,

47,68,25,1/3^6[8:1],7<2[16:3],1>8[4:1],8,1,61,57,83,24,{8}12,78,56,34,{2}1v6[8:1]/2q6[16:3],
{4}48,37,26,1^4[8:1]/5^8[8:1],1p5[8:1]/5p1[8:1],1^4[8:1]/5^8[8:1],1p5[8:1]/5p1[8:1],15,
15,37,26,48,{8}27,27,1s5[4:1]/8z4[4:1],18,{2}18,
{8}1-5[8:1],1,18,,8-4[8:1],8,82,,2-6[8:1],2,27,,7-3[8:1],7,74,,
4-7[8:1],4,45,,5-2[8:1],5,53,,13,28,71,86,{4}45,2b/7b,
{8}8p4[8:1],8,1,1,1q5[8:1],1,7,7,7p3[8:1],7,2,2,2-6[8:1]/8-4[8:1],28,28,,
3-7[8:1],3,35,5,5-1[8:1],5,45,,{1}4qq1[2:1]/8qq5[2:1],

{12}4,4,5,4,4,6,4,4,7,48,,,5,5,4,5,5,3,5,5,2,51,,,1,1,8,1,1,7,1,1,6,15,,,8,8,1,8,8,2,8,8,3,84,,,
{8}6,5,47,6,3,4,52,3,6,5,47,6,3,4,52,,2,1,83,2,7,8,16,7,2,1,83,2,7,8,16,,
{12}18,1,1,7,7,7,3,3,3,45,,,45,5,5,3,3,3,7,7,7,18,,,
82,2,2,4,4,4,6,6,6,57,,,17,7,7,5,5,5,3b,3b,3b,1b,1b,1b,
{8}7,8,16,7,2,1,83,2,6,5,47,6,3,4,52,,1,8,27,5,4,5,36,2,{8}1b/2b,7b/8b,5b/6b,3b/4b,1b/2b,,

12,38,1-5[8:1]/2-6[8:1],,12,,34,4-8[8:1]/3-7[8:1],,34,,2,13,4,35,6,5/7h[4:1],,
1-5[8:1],,71,7-4[8:1],,7/3>7[8:7],,3,,,{4}4,5,6,6h[8:3],{8}5,5,,12,{4}38,
3h[8:3],{8}4,4,,87,{4}61,6h[8:3],{8}5,5,,12,{4}38,{8}45,45,45,45,,18,2b/7b,,
8-4[8:1]/7-3[8:1],,87,,65,5-1[8:1]/6-2[8:1],,65,,7,86,5,64,3,4/2h[4:1],,
8-4[8:1],,28,2-5[8:1],,2/6<2[8:7],,6,,,{4}5,4,3,{1}2b/7b,{4},,,

{4}5h[4:1],{16}1,5,1,5,2,6,2,6,3,7,3,7,4,8,4,8,3,7,3,7,2,6,2,6,{8}1b/5b,1b/5b,,3b/7b,
{16}8,4,8,4,7,3,7,3,6,2,6,2,5h[8:1],,1,5,2,6,2,6,3,7,3,7,{8}8b/4b,8b/4b,,6b/2b,
{2}7^2[8:1],{16}3,3,4,4,5,5,6,6,3,3,4,4,5,5,6,6,{8}2b/7b,2b/7b,,1b/8b,
7-3[8:1]/8-3[8:1],78,78,,2-6[8:1]/1-6[8:1],21,21,,{16}4,5,4,5,4,5,4,5,{8}3b/6b,3b/6b,,4b/5b,
{16}4,5,4,6,4,7,4,8,4,1,4,2,4,3,4,5,4,6,4,7,{8}4h[8:1]/8h[8:1],,4b/8b,4b/8b,,2b/6b,
{2}2^7[8:1],{16}5,4,5,3,5,2,5,1,5,8,5,7,5,6,5,4,{8}3b/6b,3b/6b,,2b/7b,

{16}1h[32:1],5h[32:1],2h[32:1],6h[32:1],3h[32:1],7h[32:1],4h[32:1],8h[32:1],
5h[32:1],1h[32:1],4h[32:1],8h[32:1],3h[32:1],7h[32:1],2h[32:1],6h[32:1],
1h[32:1],5h[32:1],3h[32:1],8h[32:1],2h[32:1],6h[32:1],4h[32:1],7h[32:1],{8}2b/6b,2b/6b,,4b/8b,
{2}8-4[8:1],{16}1h[32:1],8h[32:1],2h[32:1],7h[32:1],1h[32:1],8h[32:1],2h[32:1],7h[32:1],
{32}1,2,3,4,5,6,7,8,1,2,3,4,5,6,7,8,
1h[64:1],8h[64:1],7h[64:1],6h[64:1],5h[64:1],4h[64:1],3h[64:1],2h[64:1],
1h[64:1],8h[64:1],7h[64:1],6h[64:1],5h[64:1],4h[64:1],3h[64:1],2h[64:1],{4}18,8w4[8:1],8b,,

2v5[8:1],1^6[8:1],{8}4,4v1[8:1]*v7[8:1],,4,,2,13,4,35,6,5/7h[4:1],,
1q5[8:1],,71,7^4[8:1],,7/3qq7[8:7],,3,,,{4}4,5,6,
6qq4[4:1],{8}5,5,,12,38,,{4}3pp5[4:1],{8}4,4,,87,61,,
{4}6qq4[4:1],{8}5,5,,12,38,,1-6[8:1],8-3[8:1],1,8,,45,2b/7b,,
{4}7v4[8:1],8^3[8:1],{8}5,5v8[8:1]*v2[8:1],,5,,7,86,5,64,3,4/2h[4:1],,
8p4[8:1],,28,2^5[8:1],,2/6pp2[8:7],,6,,,{4}5,4,
3^6[4:1],6^1[4:1],1^4[4:1],4,8^5[4:1],5^2[4:1],2^7[4:1],7,4,
{2}7-4[8:1]/3V16[8:1],1v6[8:1]/7-3[8:1],1s5[8:1]/7-2[8:1],3v1[8:1]/7-1[8:1],
{1}2s6[4:5]/7z3[4:5],{4},,,1b,

{8}7h[4:1],8,1h[4:1],8,5h[4:1],4,3h[4:1],4,6h[4:1],8,2h[4:1],8,7-3[8:1],1b,1b,,
{8}2h[4:1],1,8h[4:1],1,4h[4:1],5,6h[4:1],5,3h[4:1],1,7h[4:1],1,2-6[8:1],8b,{1}8b,,,,E

Re:MASTER


  • 追加しました。修正等ありましたらよろしくお願いします。 -- けもがみ (2023-09-26 00:31:51)
  • MASTER譜面のSLIDEの速度の修正を行いました。 -- けもがみ (2026-05-29 17:42:48)
名前:
コメント:

タグ:

+ タグ編集
  • タグ:
最終更新:2026年10月04日 09:38