アットウィキロゴ

初音ミクの消失〈スタンダード〉

アーティスト cosMo@暴走P

BPM EASY BASIC ADVANCED EXPERT MASTER Re:MASTER
240 3 6 9 11+ 13+ -

EXPERT MASTER Re:MASTER
譜面制作者 某S氏 チャン@DP皆伝 -

EASY


BASIC

(240.0){1},
{1}1,
{1}1,
{1}8,
{1}8,
{1}7,
{1}7,
{1}6,
{1}6,
{1}5,
{1}5,
{1}4,
{1}4,
{1}3,
{1}3,
{1}2,
{1}2,
{1}1,
{1}1,
{1}2,
{1}2,
{1}3,
{1}3,
{2}4,4,
{1}4,
{1}5,
{1}5,
{1}6,
{1}6,
{1}7,
{1}7,
{2}8,8,
{1}8b,
{1}8h[1:1],,
{2}6,6,
{1}6,
{1}4h[1:1],,
{2}2,2,
{1}2,
{1}1h[1:1],,
{2}3,3,
{1}3,
{1}5h[1:1],,
{2}7,7,
{1}7,
{2}8,8,
{1}7,
{2}6,6,
{1}5,
{2}4,4,
{1}3,
{1}2h[1:1],,
{2}1,1,
{1}2,
{2}3,3,
{1}4,
{2}5,5,
{1}6,
{1}7b/8b,,
{2}8,8,
{2}8,8,
{2}1,1,
{2}1,1,
{2}2,2,
{2}2,2,
{2}3,3,
{1}3/4,
{2}4,4,
{2}4,4,
{2}3,3,
{2}3,3,
{2}2,2,
{2}2,2,
{2}1,1,
{1}1/8,
{4}1,1,1,,
{4}1,1,1,,
{4}2,2,2,,
{4}2,2,2,,
{4}3,3,3,,
{4}3,3,3,,
{4}4,4,4,,
{4}4,4,4,,
{4}5,5,5,,
{4}5,5,5,,
{4}6,6,6,,
{4}6,6,6,,
{4}7,7,7,,
{4}7,7,7,,
{4}8,8,8,,
{4}8,8,8,,
{4}8,8,8,8,
{4}8,8,8,,
{4}7,7,7,7,
{4}7,7,7,,
{4}6,6,6,6,
{4}6,6,6,,
{4}5,5,5,5,
{4}5,5,5,,
{4}4,4,4,4,
{4}4,4,4,,
{4}3,3,3,3,
{4}3,3,3,,
{4}2,2,2,2,
{4}2,2,2,,
{4}1,1,1,1,
{4}1,1,1,,
{1}1-4[4:3],,
{1}8-5[4:3],,
{1}1-5[4:3],,
{1}8-4[4:3],,
{4}4/5,4/5,4/5,4/5,
{1}4/5,
{4}3/6,3/6,3/6,3/6,
{1}3/6,
{4}2/7,2/7,2/7,2/7,
{1}2/7,
{4}1/8,1/8,1/8,1/8,
{1}1/8,
{1}2b/7b,
E

ADVANCED

(240.0){1},
{1}3h[1:1],
{1}5h[1:1],
{1}4h[1:1],
{1}6h[1:1],
{1}4h[1:1],
{1}5h[1:1],
{1}3h[1:1],
{1}5h[1:1],
{2}4h[2:1],6h[2:1],
{2}4h[2:1],5,
{2}5h[2:1],3h[2:1],
{2}5h[2:1],4,
{2}4h[2:1],7h[2:1],
{2}3h[2:1],4,
{2}2h[2:1],6h[2:1],
{4}5,4,3/6,,
{4}1,1,1,,
{4}2,2,2,,
{4}3,3,3,,
{4}4,4,4,,
{4}5,5,5,,
{4}6,6,6,,
{2}7h[2:1],1h[2:1],
{4}8,1,8,,
{4}8,8,8,,
{4}7,7,7,,
{4}6,6,6,,
{4}5,5,5,,
{4}4,4,4,,
{4}3,3,3,,
{2}2h[2:1],8h[2:1],
{4}1,8,1,,
{2}1h[2:1],8,
{4}1,1,2,2,
{2}3h[2:1],4,
{4}4,4,5,5,
{2}6h[2:1],5,
{4}5,5,4,4,
{2}3h[2:1],4,
{2}6h[2:1],5,
{2}8h[2:1],1,
{4}8,8,7,7,
{2}6h[2:1],5,
{4}5,5,4,4,
{2}3h[2:1],4,
{4}4,4,5,5,
{2}6h[2:1],3h[2:1],
{2}5h[2:1],4,
{4}4,4,5,5,
{4}6,6,5/7,,
{4}5,5,4,4,
{4}3,3,2/4,,
{4}1,1,8,8,
{4}1,1,1/8,,
{2}3h[2:1],6h[2:1],
{2}4h[2:1],5,
{4}5,5,4,4,
{4}3,3,2,2,
{4}4,4,5,5,
{4}6,6,7,7,
{1}8^5[8:5],
{1}4^1[8:5],
{4}8,8,1,1,
{4}2/7,2/7,2b/7b,,
{2}2h[2:1],1h[2:1],
{4}2,3,4,5,
{2}6h[2:1],5h[2:1],
{4}6,7,8,1,
{2}2h[2:1],1h[2:1],
{4}2,3,4,5,
{2}6h[2:1],5h[2:1],
{4}6,7,1/8,,
{2}7h[2:1],8h[2:1],
{4}7,6,5,4,
{2}3h[2:1],4h[2:1],
{4}3,2,1,8,
{2}7h[2:1],8h[2:1],
{4}7,6,5,4,
{2}3h[2:1],4h[2:1],
{4}3,2,1b/8b,,
{4}1/8,1,1,1,
{4}2,2,2,2,
{4}3,3,3,3,
{4}4,4,4,4,
{4}5,5,5,5,
{4}6,6,6,6,
{4}7,7,7,7,
{4}8,8,8,8,
{4}1/8,1/8,7,7,
{4}6,6,5,5,
{4}4,4,3,3,
{4}2,2,1,1,
{4}1/8,1/8,2,2,
{4}3,3,4,4,
{4}5,5,6,6,
{4}7,7,8,8,
{4}1/8,2,3,4,
{4}4/5,5,6,7,
{4}1/8,7,6,5,
{4}4/5,4,3,2,
{4}1/8,7,6,5,
{4}3/4,5,6,7,
{4}1/8,2,3,4,
{4}5/6,4,3,2,
{4}1/8,7,7/8,6,
{4}5/6,3,3/4,2,
{4}1/2,3,3/4,6,
{4}5/6,7,7/8,6,
{4}5/6,3,3/4,6,
{4}5/7,3,2/4,6,
{4}5/6,5/6,3/4,3/4,
{4}1/2,1/2,7/8,7/8,
{1}6<3[2:3],,
{1}3>6[2:3],,
{1}5-8[2:1],
{1}1-4[2:1],
{1}5^8[2:1],
{1}1^4[2:1],
{4}5,6,7,8,
{4}1,2,3,4/5,
{4}4,3,2,1,
{4}8,7,6,4/5,
{4}6,7,8,1/2,
{4}3,2,1,7/8,
{4}4/5,4/5,3/6,3/6,
{8}2/7,,2/7,,1/8,1/8,1/8,,
{1}2b/7b,
E

EXPERT

(240)
{1}3h[1:1],1h[1:1],{2}8h[2:1],7h[2:1],6h[2:1],5h[2:1],
{4}4,4,4,4,5,5,5,5,45,45,36,36,27,27,18,1b/8b,
1,1h[4:1],7,7h[4:1],5,5h[4:1],3,3h[4:1],
1,1h[4:1],6,6h[4:1],3,3h[4:1],8,18,
1,1h[4:1],3,3h[4:1],5,5h[4:1],7,7,
1^4[4:1],,8^5[4:1],,2,1,8,2b/7b,
4,3,2,1,8,7,6,5,3,24,6,57,2,13,7,68,
78,6,5,34,12,3,4,56,
{2}5h[4:1]/7h[4:1],3h[4:1]/4h[4:1],1-6[4:1]/2-6[4:1],,
{4}37,2,1,8,26,7,8,1,3,25,6,47,2,38,7,16,
34,25,16,78,12,38,47,56,
{2}2h[4:1]/4h[4:1],5h[4:1]/6h[4:1],7-3[4:1]/8-3[4:1],,
{8}8,,2,2>6[2:1],{1},{4}1,8,{8}7h[8:3]/8,,,6h[8:3],,,5q4[2:1],,
{4},,,2,2h[2:1],,1,7,7h[2:1],,8,,
{8}1h[8:3],,,8,,,27,,{1}2-5[4:1]/7-4[4:1],
{8}1,,7,7<3[2:1],{1},{4}8,1,{8}1/2h[8:3],,,3h[8:3],,,
{4}4,45,,45,36,2/7-3[4:1],,,2,{2}2h[2:1],8h[2:1],
{4}1-5[4:1],8,8-4[4:1],2,2-5[4:1],7,7,,
6h[8:15],3,3,{8}1,{4}1,2,3,4,{8},
{4}3h[8:15],6,6,{8}8,{4}8,7,6,5,{8},
{4}7h[8:9],4,4,{8}5,{4}5,5,{8},{4}3,2,{2}1-5[4:1],7,8-4[4:1],2,
{8}1h[8:3],,,3h[8:3],,,5h[8:3],,,7-3[4:1],,,1,,1,,
7h[8:3],,,5h[8:3],,,3h[8:3],,,1-5[4:1],,,8,,8,,
1h[4:1],,8,8qq4[4:3],,{1},{8}1,1,1w5[1:1],{2},,,2b/7b,
{8}8-4[4:1],,,3,,,6,6,6,,4,,7,,2,2,2,,,8,,1,1,,{4}78,16,25,34,
16,,6,7,{8}1h[8:3],,,3h[8:3],,,4,,
{4}6,4,5,{8}1,1,{4},7-3[4:1],3-7[4:1],,
{8}1-5[4:1],,,6,,,3,3,3,,5,,2,,7,7,7,,1,1,,8,8,,{4}12,38,4b/7b,5b/6b,
3b/8b,,3,1,{8}8h[8:3],,,6h[4:1],,,5,,
{4}3,5,4,{8}8,8,{4},1b/8b,2b/7b,3b/6b,
4,56,5,34,3,46,6,35,2,35,7,46,2h[4:1],5,7h[4:1],4,
3,56,6,34,2,56,7,34,1,46,8,35,4-1[4:1],,8-5[4:1],,
1,34,56,35,8,65,34,46,1,46,8,35,1h[4:1],6,8h[4:1],3,
18,46,18,35,18,47,18,25,17,35,28,46,1-4[4:1],,5-8[4:1],,
4,4,6,6,2,2,8,8,78,78,12,12,34,34,56,56,
46,35,47,25,37,26,48,15,
4h[4:1]/8h[4:1],,2h[4:1]/6h[4:1],,18,27,36,45,
1-5[4:1],8,8-4[4:1],1,2,2,18,18,
7-4[4:1],2,2-5[4:1],7,8,8,27,27,
{2}1-5[8:1]/8-6[8:1],1-3[8:1]/8-4[8:1],
1-6[8:1]/2-5[8:1],7-4[8:1]/8-3[8:1],{4}1,1,8,8,12,47,38,5b/6b,
{8}3h[4:3],,,4,,,2,,6h[4:3],,,5,,,7,,
2h[4:3],,,3,,,8,,7h[4:3],,,6,,,1,,
12,,,45,,,68,,78,,,45,,,13,,45,,,18,,,57,,{2}4h[2:1],5b,
{8}1,1,1,1,8,8,8,8,1,,,2,,,3,,24,,24,,57,,57,,3,3,3,,5,5,5,,
4,4,4,4,6,6,6,6,2,2,2,2,8,8,8,8,3,3,3,3,35,35,35,35,
{2}3b/5b,4b/7b,1bpp4[4:17]/5bpp8[4:17],
{1},,,E

MASTER

(240)
{8}8,,2,1,2,1,2,1,2,,7,8,7,8,7,8,7,,2,7,2,7,2,7,2,,8,1,8,1,8,1,
8,,3,4,3,4,3,4,3,,6,5,6,5,6,5,6,,3,6,3,6,3,6,3,,5,4,5,4,5,4,
5,,2,2,2,2,2,2,2h[1:1],,7,7,7,7,7,7,
7h[1:1],,1,1,1,1,1,1,1h[1:1],,8,8,8,8,8,8,
8h[1:1],,3,3,3,3,3,3,3h[1:1],,6,6,6,6,6,6,
6,,27,27,27,27,27,27,27,,28,28,38,38,4^1[4:1]/8^5[4:1],,
4b/8b,,,3,,,2,1,8,,7,,7,,8,1,2,,,2,,8,
{4}1-6[8:1],8-3[8:1],2-5[8:1],7-4[8:1],1,
{8}1,,,6,,,6,,5,4,,4,,4,5,,{4}6,7,2,
1-6[8:1],8-3[8:1],2-5[8:1],7-4[8:1],1b,
{8}2h[4:1],,,8h[4:1],,,2pp4[8:1]/7pp1[8:1],,
{4},,3,3,7-3[8:1],7,2-6[8:1],2,8-4[8:1],8,1-5[8:1],1,
6h[4:1],7h[4:1],8h[4:1],1-5[8:1],,8,8,1,
7^5[8:1],2,2^4[8:1],8-3[8:1],1-6[8:1],7-4[8:1],2-5[8:1],1,

{8} 8b,,18,1pp4[8:5]/8qq5[8:5],{1} ,{4} 6,7,
{8} 8h[4:1],,,1h[4:1],,,
{1} 2/8^5[4:1],
{8} 1,1,8,1^4[4:1]/7^4[4:1],,,,,8,8,
{2} 1>5[2:1],5<1[2:1],
{8} 1q5[8:3],,,5^8[8:3],,,8w4[8:3],,{1} ,
{8} 2b/6b,,48,4qq1[8:5]/8qq5[8:5],{1} ,{4} 1,8,
{8} 3h[4:1]/7h[4:1],,,2h[4:1]/6h[4:1],,,{4}1^4[8:1]/5^8[8:1],,,
1,2^5[8:1]/8^5[8:1],,,,
{8} 8,8,{4} 1q5[8:1],1,8p4[8:1],8,1^4[8:1],1,8^5[8:1],8,1^3[8:1],1,8^6[8:1],8,1b,

2,2,{8}8,{4}8,1^4[8:1],1,5h[8:19],,{8},
{4}2,2,{8}1,{4}1,8^3[8:1],8,4h[8:3],,{8},
{4}6,5,{8}4,{4}3,3,{8},{4}1,1,
{2}1pp3[8:1],1qq7[8:1],1q5[8:1],1p5[8:1],
{8}3h[4:1]/7h[4:1],,,2h[4:1]/6h[4:1],,,
3h[4:1]/7h[4:1],,,4h[4:1]/8h[4:1],,,{4}4^1[8:1]/8^5[8:1],48,
{8}4h[4:1]/8h[4:1],,,1h[4:1]/5h[4:1],,,
{4}2h[4:1]/6h[4:1],,37,4^1[8:1]/8^5[8:1],48,{8}8,,2,2,,{4}6,6,6,6,

{16} 2b,1,8,7,6,5,4,3,2,1,
{24} 8,7,6,5,4,3,
{12} 7,8,7,8,7,8,7b,7b,,{4},,,

{8}5,,,6,,,7,8,{4}1,1,1V35[4:1],{8}5,7,
1,,,7,,7,{4}1q5[4:1],5q1[4:1],1>5[4:1],5<1[4:1],1w5[4:1],,,
8,1,{8}2<6[8:3],,,6>2[8:3],,,,,
{4}7,7,7,{8}5,6,{4}5-3[8:1],5-7[8:1],5-1[8:1],,
{8}4,,,3,,,2,1,{4}8,8,8V64[4:1],{8}4,2,8,,2,2,,2,
{4}8p4[4:1],4p8[4:1],8<4[4:1],4>8[4:1],8w4[4:1],,,
1,8,{8}2,,,7,,,{4}1-5[8:1],,7,2,{8}4,3,{4}4-6[8:1],4-2[8:1],4-8[8:1],,

{12} 1b,2,3,8,7,6,2,3,4,7,6,5,2,3,4,7,6,5,1,8,7,6b,5,4,
8,7,6,1,2,3,7,6,5,2,3,4,7,6,5,2,3,4,8,1,2,3b,4,5,
2,3,4,1,2,3,7,6,5,8,7,6,1,2,3,8,7,6,1,8,7,6b,5,4,
7,6,5,8,7,6,2,3,4,1,2,3,8,7,6,1,2,3,8,1,2,3b,4,5,
3,4,3,6,5,6,3,4,3,6,5,6,2,1,2,7,8,7,1,8,1,2b,3,4,
6,5,6,3,4,3,6,5,6,3,4,3,7b,8,7,2,1,2,8,1,8,7b,6,5,
2,1,2,7,8,7,2,1,2,7,8,7,2,1,2,7,8,7,1,8,1,2b,3,4,
7,8,7,2,1,2,7b,8,7,2,1,2,7,8,7,2,1,2,8,1,8,7b,6,5,
{4}2b,4/8^5[8:1],1^4[8:1]/8,1,8,2^5[8:1]/5,2/7^4[8:1],7,
1,3/7^4[8:1],3^8[8:1]/7,3,7,2^5[8:1]/6,2/6^1[8:1],6,
{8}2b,2,8-5[8:1],8,{4}1-4[8:1],1,{8}8,8,1-4[8:1],1,{4}7-4[8:1],7,
{8}1,1,7-4[8:1],7,{4}3-8[8:1],3,{8}7,1,7,1,{12}2,3,4,7,6,5,
{8}2b,2,8-5[8:1],8,2-6[8:1],2,2,,7,7,1-5[8:1],1,7-4[8:1],7,7,,
2b,2,8-5[8:1],8,2-6[8:1],2,2,,7,7,1-5[8:1],1,7-4[8:1],7,7,,
1b-4[8:1],1,7-4[8:1],7,1-5[8:1],1,1,,8-4[8:1],8,2-6[8:1],2,8-5[8:1],8,8,,
{12}1b,2,3,8,7,6,2b,3,4,7,6,5,1b,2,3,8b,7,6,{16}1b,2,3,4,8b,7,6,5,
{4}1b,2,8,7,{8}6,6,7,8,2,1,2,,{4}8,7,1,2,{8}7,7,6,5,3,4,3,,
5,5,6,7,1,8,1,,8,8,7,6,4,5,4,,4,4,3,2,8,1,8,,4,4,5,6,4,,5,,
26,2,26,2,26,2,26,2,28,2,28,2,28,2,2b/8b,,
37,7,37,7,37,7,37,7,17,7,17,7,17,7,1b/7b,,
26,26,26,26,37,37,37,37,48,48,48,48,37,37,37,37,
48,48,48,48,37,37,37,37,26,26,26,26,37,37,3b/7b,,
{1} 3h[2:9]/7h[2:9],,,,{4},,
{32} ,26,15,84,
{1} ,,,,E

Re:MASTER


  • わかるかい -- 名無しさん (2023-10-25 09:52:31)
名前:
コメント:

タグ:

+ タグ編集
  • タグ:
最終更新:2026年10月01日 21:18