アットウィキロゴ

初音ミクの消失〈でらっくす〉

アーティスト cosMo@暴走P

BPM BASIC ADVANCED EXPERT MASTER Re:MASTER
240 6 8 12 14 -

EXPERT MASTER Re:MASTER
譜面制作者 Luxizhel はっぴー -

BASIC


ADVANCED


EXPERT


MASTER

(240)
{4}1b>5[2:1],5,6,7,8b<4[2:1],4,3,2,1b>5[2:1],5,6,7,8b<4[2:1],4,3,2,
1h[2:1],6,6,6,7h[2:1],4,4,4,{8}5,5,4,4,6,6,63,,{16}4,5,4,5,4,5,4,5,{4}3,2b/6b,
{12}7,5,6,5,6,5,{4}7h[4:1],1,{12}2,4,3,4,3,4,{4}2h[4:1],8,
{12}7,5,6,5,,,2,4,3,4,,,7,5,6,2,4,3,{4}7h[4:1],1,
{12}2,4,3,4,3,4,{4}2h[4:1],8,{12}7,5,6,5,6,5,{4}7h[4:1],1,
{12}2,4,3,4,,,7,5,6,5,,,2,4,3,7,5,6,{2}4-1[8:1]*-7[8:1],

{8}8hx[4:1],,2,2h[4:1],,4,{4}4,18,57,45,{8}3,2,1h[4:1],,7,7h[4:1],,5,{4}5,81,42,54,57,
{8}8h[4:1],,6,6h[4:1],,4,4,,35,35,,2V46[4:1],,7,{4}7,8-4[8:1],1,2-6[8:1],7,{8}8,8,,26,,35,{4}35,
6x/2x-5[8:1],7-3[8:1],1-5[8:1],8-4[8:1],3h[4:1],5,6,57,
{2}7-4[8:1]/8,2-5[8:1]/1,8-4[8:1]/7,1-5[8:1]/2,{4}7h[4:1],5h[4:1],4h[4:1],2h[4:1],1,38,47,56,
{2}7-5[8:1]/8-4[8:1],2-4[8:1]/1-5[8:1],{8}3x/6x,3x/6x,3x/6x,,{16}4,5,4,5,{4}3,

{8}1-5[8:1],,5x>1[2:1],6x,,,{4}7,7,6,62,71,7^4[8:1]/1,{8}2,1^4[8:1],,6,7,,7,6,5,4,3,4,5,6,
7,7h[8:3],5,,5,,4,4,{4}6-8[8:1],5,4-2[8:1],5pp8[2:1],{8}1x,,,2h[8:3],,,8x-6[8:1],,2,3,4,5,6,5,4,3,
2h[4:1],,4,4,{4}3^1[8:1],4,5^7[8:1],4,3,2-6[8:1],7^2[8:1],{8}5,4-1[8:1],,5,{4}6^1[8:1],
{2}2h[2:1],{4}4h[4:1],5h[4:1],7h[2:1],E6,3h[2:1],B4,6h[2:1],B5,2h[2:1],E4,
5^8[8:1],3,1^4[8:1],7,8-5[8:1],3,4-1[8:1]*-7[8:1],,{16}8x,8x,8x,,{8}1b/7b,,

2-6[8:1]/6,,7,{4}7,8-4[8:1],8/3^6[8:1],3,{8},{4}8hx[4:1],2,
{8}7-3[8:1]/3,,2,{4}2,1-5[8:1]/4,1/6^3[8:1],6,{8},
{4}1x,24,45,{8}75,75,,46,46,,3,,{2}3/4<8[4:1],5>1[4:1],4<8[4:1],5>1[4:1],
{8}4,,6h[4:1],,8,8h[4:1],,1,1h[4:1],,3,3h[4:1],,5,5,,26,,
3hx[8:1],,,1hx[8:1],,,8hx[8:1],,,6hx[8:1],,,{4}4x,46,2h[4:1],{8}4,
{4}4-8[8:1],2-6[8:1],7-3[8:1],5s1[8:3],,,{16},,
1x,2x,8x,7x,1x,2x,8x,7x,1x,2x,8x,7x,1x,2x,8x,7x,1x,2hbx[16:7],8hbx[8:3],,{4},
{24}D7/D4,A6/A4,D6/D5,A5,,,{8},,

7^4[8:1],,4,3h[4:1],,5,6,6,{4}56,78,6/1^4[8:1],7,8^5[8:1],{8}4,3h[4:1],,4,4,,
{4}34,12,78,56,4h[4:1]/7h[4:1],,8^5[4:1],5-1[4:1],1^4[4:1],4-8[4:1],8,1,27,
{1}4-1-3v2[2:1]/5-8-6v7[2:1],{4}1x/8x,36,45,
{8}3^8[8:1],,8,7h[4:1],,1,2,3,{4}34,34,2/5^8[8:1],3,4^1[8:1],{8}8,7h[4:1],,8,8,,
{4}78,56,34,1-4[8:1]*-6[8:1]/2,1b,,7-5[4:1],5-1[4:1],1-3[4:1],3-7[4:1],7,
1-5[64:1]b,1x/6<2[4:1],2<6[4:1],4,3V14[2:1]*pp4[2:1],,,,3x/5x,

{12}2,4,3,7,5,6,3,4,2,6,5,7,2x^4[8:1],2x,,8x^6[8:1],8x,,5x-1[8:1],5x,,8x,,,
7h[6:1],,5,5,6,4,7,5,6,2,4,3,7,5,6,4x-1[8:1]*-7[8:1],4x,,,,,2x/6x,,,
7,5,6,2,4,3,6,5,7,3,4,2,7x-5[8:1],7x,,1x-3[8:1],1x,,8x-4[8:1],8x,,1x,,,
2h[6:1],,4,4,3,5,2,4,3,7,5,6,2,1,3,7,8,6,1x-4[8:1],1x,,7,,,8xV64[4:1],8x,,4xV28[4:1],4x,,8x,,,4x,,,
2,4,3,4,3,4,2,4,3,4,3,4,1x-5[8:1],1x,,5,,,6,5,7,3,4,2,7,5,6,2,4,3,6,5,6,3,4,3,
6x-1[8:1],6x,,2x-5[8:1],2x,,7x-4[8:1],7x,,3x,3x,,2,1,2,7,8,7,
2h[6:1],,8,8,5,6,3,4,2,6,5,7,4xv1[8:1]*v7[8:1],4x,,,,,8x-4[8:1],8x,,1x-3[8:1],1x,,7x-5[8:1],7x,,4x,,,

4x,4,4,4,4,4,4,4,4,4,4,4,{4}4bx/3bx,1bx/2bx,7bx/8bx,5bx/6bx,
{12}6,6,6,6,6,6,6,6,6,6,6,6,{4}5bx/6bx,8bx/7bx,3bx/4bx,1bx/2bx,
{12}2,2,2,2,2,2,2,2,2,2,2,2,{4}1bx/2bx,4bx/3bx,6bx/5bx,8bx/7bx,
{12}8,8,8,8,8,8,8,8,8,8,8,8,{4}1bx/8bx,1-4[8:1]/8-5[8:1],18,3x/6x,
{12}3,5,3,5,3,5,3,4,3,4,3,4,3,2,3,2,3,2,3,4,3,4,2x,2x,
6,4,6,4,6,4,6,5,6,5,6,5,6,7,6,7,6,7,6,5,6,5,7x,7x,
2,5,2,5,2,5,2,3,2,3,2,3,2,1,2,1,2,1,2,7,2,7,3x,3x,
6,5,6,5,6,5,6,7,6,7,6,7,6,1,6,1,6,1,6,3,6,3,6,3,

{1}7^4[2:1],2^5[2:1],7^4[2:1],{2}2,34,3h[2:1],5,6h[2:1],4,{4}3,35,6,64,{8}3,3,5,5,4,4,5,5,
{16}3,6,2,6,2,6,2,6,2,6,2,6,2,6,2,6,2,6,2,6,2,6,2,6,2,6,2,6,2,6,2,6,
1,6,1,6,1,6,1,6,1,6,1,6,1,6,1,6,1,6,1,6,1,6,1,6,1,6,1,6,3,,,,
1,5,8,5,8,5,8,5,8,5,8,5,8,5,8,5,8,5,8,5,8,5,8,5,8,5,8,5,8,5,8,5,
7,5,7,5,7,5,7,5,7,5,7,5,7,5,7,5,7,5,7,5,7,5,7,5,7,5,7,5,
{4}1b-5-1[1:4],{1}Ch[8:35],,,,{4},{16},,,{1}A2/A4/A6/A8/B2/B4/B6/B8/C,,,,E

Re:MASTER


  • 追加しました。修正等ありましたらよろしくお願いします。 -- けもがみ (2023-09-27 00:00:24)
名前:
コメント:

タグ:

+ タグ編集
  • タグ:
最終更新:2026年04月01日 21:55