アットウィキロゴ

PUPA

アーティスト モリモリあつし

BPM BASIC ADVANCED EXPERT MASTER Re:MASTER
202 6 7+ 12+ 14 -

EXPERT MASTER Re:MASTER
譜面制作者 鳩ホルダー じゃこレモン -

BASIC


ADVANCED


EXPERT

(202)
{8}53,,,53,,,5h[8:9]/3h[1:1],,{1},
{8}64,,,64,,,6h[8:9]/4h[1:1],,{1},
{8}71,,,71,,,7h[8:9]/1h[1:1],,{1},
{8}82,,,82,,,8/1s5[2:1]b,,,,,,,,6b/4b,,
54,,3,53,,6,64,,3,53,,7,75,,62,,
83,,7,78,,2,12,,81,81,,7b-4[8:1]/1b-5[8:1],,,,,
54,,6,64,,3,53,,6,64,,2,24,,12,,
8,7,6,5,4,3,2,1w5[8:3]b,,,,,,,7b/3b,,

{8}8,8,81,,{16}2h[16:3],,,4h[16:3],,,3,,
{8},54,54,,{16}7h[16:3],,,5h[16:3],,,6,,
{8},54,54,,{16}2h[16:3],,,4h[16:3],,,3,,
{8},54,54,,{16}6hx[16:3],,,8x,,,7x/8x,,
{8}7x/8x,,12,12,,43,,65,6h[4:3]/5p4[2:1],,,,,,,,
12,,78,78,,65,,34,3h[4:3]/4q5[2:1],,,,,,,,
{8}6,6,64,,{16}7h[16:3],,,5h[16:3],,,6,,
{8},54,54,,{16}2h[16:3],,,4h[16:3],,,3,,
{8},54,54,,{16}7h[16:3],,,5h[16:3],,,6,,
{8},54,54,,{16}3h[16:3],,,1,,,12,,
{8}12,,8,8,1,1,7,7,3,3,4,4,5,5,6,6,
78,,12,12,,54,,78,78,1,2,3,4,5,6,7,

{1}8pp4[4:5]/1h[2:3],,8-5^4-1[1:1]/7h[4:5],{8},,,,8b,8b,,,
{1}7pp8-5[1:1]/3h[4:5],{2},1b,{1}4-8-6[4:3]/7h[4:5],{8},,,,8b/1b,8b/1b,,,
{16}2h[16:3],,,3h[16:3],,,4,,5h[16:3],,,6h[16:3],,,7,,
8h[16:3],,,1h[16:3],,,2,,2-6[8:1]*-5[8:1],,,,,,,,
7h[16:3],,,6h[16:3],,,5,,4h[16:3],,,3h[16:3],,,2,,
1h[16:3],,,8h[16:3],,,7,,7-4[8:1]*-2[8:1],,,,,,,,
3h[16:3],,,4h[16:3],,,2,,8h[16:3],,,1h[16:3],,,7,,
5h[16:3],,,6h[16:3],,,4,,4-7[8:1]*-2[8:1],,,,,,,,
1,8,1,8,1,8,1,8,1,8,1,8,1,,7x/2x,,
{8},63,63,54,5b-8[8:1]b/4b-1[8:1]b,,,,

{1}7x/2hx[1:7],E2,E3,E4,E5,E6,E7,8w4[2:1],
{4}5bx/4hbx[1:2],B6,B7,B8,A1,A8,A7,A6,
5hbx[1:2],B3,B2,B1,A8,A1,A2,A3,
{8}4,4,6,6,3,3,5,5,2,2,8,8,1,1,7,7,
{16}1,8,1,8,1,8,1,8,2,7,2,7,2,7,2,7,
{8}1h[4:1],,8b,,4b/3b,,6b/5b,,

8b/1b,,2,2,{16}1/3h[16:3],,,4h[16:3],,,5,,
{8}6/5-1[8:1],,8,,4-8[8:1]/3,,1,,
71,,7,7,{16}6h[16:3]/8,,,5h[16:3],,,4,,
{8}4-8[8:1]/3,,1,,6/5-1[8:1],,8,,
82,,3,5,6-1[8:1]/2-5[8:1],,,,
7-4[8:1]/3-8[8:1],,,,6-1[8:1]/2-5[8:1],,,,
84,,65,,51,,43,,{16}6b/3b,,,7b/2b,,,8b/1b,,{8}8b-5[8:1]/1b-4[8:1],,,,
63,,3,3,{16}4/2h[16:3],,,1h[16:3],,,8,,
{8}7-4[8:1]/8-4[8:1],,,,1-5[8:1]/2-5[8:1],,,,
64,,6,6,{16}7h[16:3]/5,,,8h[16:3],,,1,,
{8}1-4[8:1]/2-4[8:1],,,,7-5[8:1]/8-5[8:1],,,,
{12}3x,4x,3x,4x,,,6x,5x,6x,5x,,,2x,1x,2x,1x,,,7-4[8:1]/1-4[8:1],,,,,,
{16}3,6,3,6,3,6,3,6,4,5,4,5,4,,,,
6b/3b,,,7b/2b,,,8b/1b,,{8}8b-4[8:1]/1b-5[8:1],,,,

63,,2,43,,7,65,,2,43,,7,65,,54,,
B1,B2,B3,B4,B8,B7,B6,B5,
E4,E3,E2,E1,E8,E7,E6,,
8x/1x,,2,43,,7,65,,2,43,,7,65,,43,,
A1,A2,A3,A4,A5,A6,A7,A8,1h[4:1],,8b,,4b/3b,,6b/5b,,
8-4[8:1],8,3-8[8:1],3,7,7,61,,
2-5[8:1],2,6-1[8:1],6,2,2,83,,
7-5[8:1],7,2-4[8:1],2,7,7,65,,
{12}3x,3x,3x,4x/2x,,,6x,6x,6x,7x/5x,,,
{8}2-6[8:1],2,7-3[8:1],7,1-5[8:1],1,8-4[8:1],8,
3-7[8:1],3,6-2[8:1],6,4-1[8:1],4,8,8,
{16}2,7,2,7,2,7,2,7,1,8,1,8,1,8,1,8,
1,2,3,4,5,6,7,8,1,2,3,4,5,6,7,8,
{8}1b,,,82,,,8h[8:9]/2h[1:1],,{1},
{8}71,,,71,,,7h[8:9]/1h[1:1],,{1},
{8}64,,,64,,,6h[1:1]/4h[8:9],,{1},
{8}53,,,53,,,5b/3b,,
E

MASTER

(202)
{16}47,,6,5,6,,37,,6,4,6,,2h[8:9]/7h[1:1],,,,{1},{16}52,,3,4,3,,62,,3,5,3,,7h[8:9]/2h[1:1],,,,{1},
{16}37,,6,4,6,,27,,6,3,6,,1h[8:9]/7h[1:1],,,,{1},{16}62,,3,5,3,,72,,3,6,3,,{8}8h[8:7]/2,,,
{16}E5,E6,E7,E8,E1,E2,E3,E4,{8}E5,2b/7b,,
5x-1[8:1],4,3,2x>6[4:1],,7,7,8,8x-4[8:1],1,2,3x>7[4:1],,6,6,5,5xv8[8:1],4,3,2x,
{16}1,7,{8}1,68,1,2b/8b,3b/1b-5[8:1],,1x/8x,{16}8,7,6,5,4,3,2,1,
{8}4x-8[8:1]/8x,,6,7x<3[4:1],,2,2,1,1x-5[8:1],8,7,6x,,47,38,12,
{16}2,3,4,5,6,7,8,1,26,37,48,51,{8}2bx/6bx,4bx/8bx^5[8:1]b,,{24}4,3,2,{4}1,{12}2x,4x,3x,7x,5x,6x,

{16}4x/7x,,47,,6,5,,5,6,,3,4,,4,3,,52,,52,,3,4,,4,3,,6,5,,5,6,,
47,,47,,6,5,,5,6,,3,4,,4,3,,52,,52,,3,4,,4,2,,2,3,,3,{8}1,
1/7h[8:3],,6,6h[4:1],,5h[8:3],,4,4qq8[2:1],,,,,5,6,7,
6h[8:3],,7,7h[4:1],,8h[8:3],,1,1>5[4:1],,,,{16}7x,7x,,8x,8x,,6x/1x,,
25,,34,,2,1,,3,4,,6,5,,7,8,,61,,61,,7,8,,6,5,,3,4,,2,1,,
38,,38,,2,1,,3,4,,6,5,,7,8,,61,,61,,7,8,,6,5x,5x,,7x,{8}7x,1x,
2h[8:3]/5,,3,3h[4:1],,4h[4:1],,{16}5,4,{8}5pp1[2:1],3,2,1,,2,3,4,
5x/7x-3[8:1],,2x/7x,1x-5[8:1],,1x/5x,,4x/6x,
{16}64,3,2,1,84,5,6,7,84,3,2,1,84,5,6,7,

{8}4hx[8:3]/8x,,E5,6h[8:3],,E6,4h[8:3],,E5,6h[4:1],,B5/E6,{2},
{8}5hb[8:3]/3b,,E5,3h[8:3],,E4,5h[8:3],,E5,3h[8:3],,E4,5b,6b,{4},
{8}4hx[8:3]/6x,,E5,6h[8:3],,E6,4h[8:3],,E5,6h[8:3],,E6,{2}4bh,
{8}5hb[8:3]/3b,,E5,3h[8:3],,E4,5h[8:3],,E5,3h[8:3],,E4,5b,6b,{4},
{16}3hx[16:3]/7x,,,1-5[8:1],,,1,,4h[16:3],,,6^3[8:1],,,6,,

1h[16:3],,,2-7[8:1],,,2,,3h[16:3],,,4h[16:3],,,5,,
6h[16:3]/2,,,8-4[8:1],,,8,,5h[16:3],,,3^6[8:1],,,3,,
8h[16:3],,,7-2[8:1],,,7,,6h[16:3],,,5h[16:3],,,4,,
3h[16:3]/7,,,4-8[8:1],,,4,,1h[16:3],,,6^1[8:1],,,6,,
4h[16:3],,,2p6[8:1],,,2,,3h[16:3],,,5h[16:3],,,4,,
3,5,3,5,4,6,4,6,3,5,3,5,{8}3,2bhx[8:1]/6bhx[8:1],,1b/7b,1b/7b,1b/7b,
{16}8,8,8,,{32}7b/1b,2,3,4,5,6,7,8,

{1}1h,2h,3h,4h,5h,6h,7h,{8}2-6^8[4:1],1,{4}8-4^2[4:1],,,
4x/6hx[2:1],{16}4,,3,,2h[16:3],,,3h[16:3],,,4,,4h[16:3],,,3h[16:3],,,2,,{8}2^4[8:1],,,
{16}5,6,{4}7hx[2:1],{16}5,,4,,3h[16:3],,,4h[16:3],,,5,,5h[16:3],,,4h[16:3],,,3,,{8}3^1[8:1],,,
{16}4,5,{8}6hx[8:7],,5,5,5,5,4x,{16}4x,5,{8}3hx[8:7],,4,4,4,4,5x,{16}5,4,
{8}5x,3,45,6,45,56,34,12,{4}7-5[8:1]/8-4[8:1],7b-3[8:1]/8b-2[8:1],7b-5[8:1]/8b-4[8:1],7b/8b,

{8}2x-6[8:1]/1x,,12,8,7^4[16:3]/5,{16},4-8[8:1],7,,8,,
1V35[16:3],,,5-1[8:1],1,,8,,7^4[16:3],,,4-8[8:1],7,,1,2,
{8}3x-7[8:1],,43,5,6^1[16:3]/8,{16},1-5[8:1],6,,5,,
4V28[16:3],,,8-4[8:1],4,,5,,6^1[16:3],,,1-5[8:1],6,,4,3,
{8}2x-6[8:1],,12,8,7^4[16:3]/5,{16},4-8[8:1],7,,8,,
1V35[16:3],,,5-1[8:1],1,,8,,7,,,28,,,45,,
36,,7,8,,4,5,,36,,2,1,,5,4,,2x/6x,,,4x/8x,,,5x/6x,,1bx/8bx,,,,{32}2b,3,4,5,6,7,8,1,

{8}6x-2[8:1]/2x,,56,4,3^8[16:3]/1,{16},8-4[8:1],3,,4,,
5V71[16:3],,,1-5[8:1],5,,4,,3^8[16:3],,,8-4[8:1],3,,5,6,
{8}7x-3[8:1],,87,1,2-5[8:1]/4,{16},5,2,,6,,{8}7x/8x,56,34,12,{16}7,8,,6,5,,47,,
{12}3b,3,3,2b,2,2,1b,1,1,8b,8,8,7b,7,7,6b,6,6,
{16}4,3,2,1,4,5,6,7,3x,4,3,4,2,1,2,1,{32}4bx,,,,8,7,6,5,3bx,,,,8,7,6,5,
{16}2bx,,,37,,,45,,{4}2xpp1[4:1]/6xpp5[4:1],2b/6b,,

{8}15,2x-4[8:1],,5,6-8[8:1],,1,2x-8[8:1],,7,6-4[8:1],,3,2,
1x-5[4:1]b,,5^7[8:1]b,7x-3[4:1]b,,3^1[8:1]b,1x-5[4:1]b,,5^7[8:1]b,7x-3[4:1]b,,3^1[8:1]b,1x,,7x,,
3x-1[8:1]/6x,,8,7x-5[8:1],,4,3x-1[8:1],,8,7x-1[8:1],,2,3x-5[8:1],,6,7,
8x-4[4:1]b,,4^2[8:1]b,2x-6[4:1]b,,6^8[8:1]b,8x,,{24}1,2,3,4,,,{4}8b-4[8:1],8bw4[8:1],8b,

{16}2x/6x,,7h[4:1]/8,1,2,3,4,,6,4,6,4,7,3,8,,1x/2x,,2h[4:1]/1,8,7,6,5,,3,5,3,5,2,6,1,,
7x/8x,,7h[4:1]/8,1,2,3,4,,6,4,6,4,6,4,5,,{12}3b,1,1,2b,8,8,1b,7,7,8b,6,6,
{16}6x/5x,,6h[4:1]/5,4,3,2,1,,7,1,7,1,6,2,5,,4x/3x,,3h[4:1]/4,5,6,7,8,,2,8,2,8,3,7,4,,
3x,4,3,4,2,1,2,1,{32}4bx,,,,8,7,6,5,3bx,,,,8,7,6,5,{16}2,3,2,3,1,8,1,8,6,7,6,7,1,8,2,7,
{8}3bx/6bx,,,28,,,4h[1:1]/6h[8:9],,{1},{16}37,,2,8,2,,36,,2,7,2,,3h[8:9]/5h[1:1],,,,{1},
{16}62,,7,1,7,,63,,7,2,7,,6h[8:9]/4h[1:1],,,,{1},{16}37,,2,8,2,,36,,2-6[8:1],7-3[16:1],{1}2,,,,E

Re:MASTER


  • 追加しました。修正等ありましたらよろしくお願いします。 -- けもがみ (2023-09-27 17:11:56)
  • サビの曲線スライドを[8:1]→[16:3]に修正しました。 -- けもがみ (2024-03-18 21:07:50)
名前:
コメント:

タグ:

+ タグ編集
  • タグ:
最終更新:2026年04月11日 19:38