BASIC
ADVANCED
EXPERT
MASTER
(200)
{8}3bx-5[8:1]/6hbx[4:1],,,6h[4:1],,,6h[4:1],,,6h[4:1],,,6,,5/6<3[4:3],,
4h[4:1],,,4h[4:1],,,4h[4:1],,,4h[4:1],,,4,,3-5[8:1]b/5,,
6bx,,6,,6,,6,4,6,5,6,3,6,5,64,,6,5,46,3,2h[8:5]/5,,4,4h[4:1],,,{4}24,1-3[8:1]/5-7[8:1],,
4/8x,47,46,{8}45,5,{4}53,24,1-3[8:1]/5-7[8:1],,4/8x,47,46,{8}45,5,{4}5/3-6[8:1],6,5x-2[8:1]/7x-4[8:1],,
{8}1x,1,28,7,6x,6,57,4,3x,3,24,5,4/6x,7,3/8h[4:1],,{16}1,8,1,8,2,7,2,7,3,6,3,6,4,5,4,5,
{8}3^6[8:1],3,{4}8-4[8:1],2x,1-4[8:1]b,
8x/1b-6[8:1]b,2x/1b-3[8:1]b,8x/1b-7[8:1]b,2x/1b-4[8:1]b,8x/1b-6[8:1]b,2x/1b-5[8:1]b,1b/8x,8x^5[8:1]b,
1x/8b^3[8:1]b,7x/8b-4[8:1]b,8b/1x,2b-5[8:1]b/6b-1[8:1]b,2b/6b,{8}48,26,,78,{4}7/8-3[8:1]b,
6x/8b-5[8:1]b,1x/8b-2[8:1]b,7x/8b-6[8:1]b,1x/8b-3[8:1]b,7x/8b-5[8:1]b,2x/8b-4[8:1]b,7x/8b,3bx/5bx,
{8}4h[8:3],,5,6h[4:1],,5,6,4/7-3[8:1],,1-6[8:1],,8,8h[4:1],,{16}5,4,3,2,{8}1bx/7bx,1bx/7bx,2bx/6bx,,
35,{16}6,5,7,,3,4,2,,7,8,{8}7,26,3-8-4[4:1],3,8,7,6,{16}6,5,7,,3,4,{8}2,2,17,2bx/6bx,,
{16}7,5,6,,3,4,{8}3^6[8:1],2,3x/8x,,1bx/7bx,{16}7,8,6,,2,1,{8}3-6[8:1]b,8,3x/7,,
2bx/8bx,{16}3,4,2,,6,5,{8}7-4[8:1],4,3/7x,,1bx/5bx,{16}2,4,3,,6,5,7,,{4}4^1[8:1]/8^5[8:1],4x/8x,
{8}4x/8x,{4}2-5[8:1]/6-1[8:1],2b/6b,48,2h[1:1],{8}4,4,4,,1,,6h[4:3],,8,8,8,,5,,
4x,4,3x/5x,35,{16}2x,6,2,6,1x,7,1,7,{8}8b^5[8:1],1,2,3h[4:1],,4,2b/5b,,{4}4-8[8:1]/5-1[8:1],45,
3bx/7bhx[4:5],{8}E3,E4,B7,B5,B2,B4,E7,E6,{4}B1/B2,3hx[4:1]/8x-4[8:1],8,
6bx/2bhx[4:5],{8}E7,E6,B2,B4,B7,B5,E3,E4,{4}B8/Cf,6hx[4:1]/1x-5[8:1]b,1,
3bx/7bhx[4:5],{8}E3,B4,B6,E5,E2,C,B7,B5,{4}A1/B1,2hx[4:1]/8x-4-8[4:1]b,,3,
{8}17,1h[4:1]/7h[4:1],,,{4}2-5[8:1]/6-1[8:1],26,2-7[8:1]b/6-3[8:1]b,2b/6b,
{8}15,2,3b/4x-8[8:1],5,46,7,1x-5[8:1],6-1[8:1],1,6,2x-5[8:1],7-3[8:1],2,7,
1x,2,3x/5,6,5b/7x-3[8:1],4,37,2,1-7[8:1],6-4[8:1],1,6,{4}1-3[8:1]b*-5[8:1]b,1x,
{8}78,16,{4}2h[8:1]/5h[8:1],2h[8:1]/5h[8:1],3h[8:1]/4h[8:1],
{8}25,3,3,47,6,6,25,3,46,46,37,37,{16}2,8,3,7,4,6,4,6,
{4}3-8[8:1],3/7-4[8:1],7/2-6[8:1],2/8p4[8:1]b*q4[8:1]b,{1}8bV64V28[2:7]/Cf,,,,
{4}C/E8,C/E7,C/E6,C/E5,C/E2,C/E3,C/E4,C/E5,C/E8/D8,C/E7/D7,C/E6/D6,C/E5/D5,C/E3/D3,C/E4/D4,C/E5/D5,1b/8b,
{8}3x/6h[4:1],,5,4x/7h[4:1],,8,6/1x,,7x/2h[4:1],,1,8x/3h[4:1],,4,2/5x,,
3x/7h[4:1],,5,6x/4h[4:1],,5,4/6x,,1hx[4:1]/7h[4:1],,,2/6x,,4x/5,{4}4/5x,
3x,3,3/C,3/E5,6x,6,6/C,6/E5,3h[4:1]/7h[4:1],{8},26,,71,{4}7/1h[4:1],3h[4:1],5h[4:1],7h[4:1],8,
{1}7V58-4-2[2:1]/1h[4:3],{8}12,3,3,45,6,6,57,,{1}2V41-5-7[2:1]/8h[4:3],{8}87,6,6,54,3,3,52,,
{16}6,5,6,5,7,,7,,3,4,3,4,2,,2,,7,5,7,5,8,,8,,2,4,2,4,1,,1,,2,8,2,8,3,7,3,7,4,6,4,6,3,5,3,5,
{4}3b-7[8:1],2b-6[8:1],1b-5[8:1],8x,
{8}7b^5[8:1],2,7-3[8:1],4,7,{16}2,1,2,1,{4}2-5[8:1]b,
{24}2x/5x,6,7,8,,,1x^4[8:1]b/4x,8,7,6,,,1x/5x,6,7,{4}8bxv3[8:1]*v5[8:1],8b,
{16}6,4,5,3,{8}4x-7[8:1],2x-5[8:1],4,2,8x-3[8:1],5x,8^6[8:1],2,8-4[8:1]b,4,8b,,
{8}2x^4[8:1],7,2-6[8:1],5,2,{16}7,8,7,8,{4}7-4[8:1]b,
{24}7x/4x,3,2,1,,,8x^5[8:1]b/5x,1,2,3,,,8x/4x,3,2,{4}1bxv6[8:1]*v4[8:1],1b,
{16}3,5,4,6,5,,7,78,,2,2b/1b,,,,3,4,2x,,6,5,{8}7x,18,2hx[4:1]/7x,,
6b,3b/5b,7b-3[8:1]/1bh[4:1],,7,{16}2,1,2,1,{4}2-5[8:1]b,
{24}2x/5x-1[8:1]b,6,7,8,,,5x/1x^4[8:1]b,8,7,6,,,1x/4x,5,6,{4}7bx-3[8:1],7b/1b,
{16}2,4,3,6,{8}5x-2[8:1],7x-4[8:1],5,7,1x-6[8:1],4x-8[8:1],1^3[8:1],4,1-5[8:1]b,5,1b,,
3,3,24,3,15,3,15,{16}7,8,{8}6,6,57,6,48,6,48,{16}2,1,
{8}3h[4:1],,4,5,{16}4/6h[8:1],,,5h[8:1]/7h[8:1],,,{8}4b/8b-4-2[4:1],,,{4}1w5[8:1],1,2b/8b,
{8}2/1-4[8:1],8,71,,7/8-5[8:1],1,28,,3/1-5[8:1],2,18,,6/8-4[8:1],7,81,,
3/1^4[8:1],2,18,,6/8^5[8:1],7,81,,1/2bV46[16:3],,25,7bV53[16:3],,74,1b,,
2-5[8:1]/6,7,82,,2-5[8:1]/6,7,82,,7-4[8:1]/3,2,17,,7-4[8:1]/3,2,17,,
3h[4:1]/5x,,1,2/8x,,56,4/5x,3x-1[8:1]/4h[4:1],,3x^6[8:1],,7x,7hx[4:1],,{16}1,8,1,8,{4}1bw5[8:1],1b,
{8}3/7-3-5[4:1]b,8,27,1,8^3[8:1],7^4[8:1],8,7,1,{16}2,4,{8}3,45,
6-4[8:1],7,6/2-6[8:1],1,26,7,{16}8x,8x,{4}1bx/7bx,{16}3,4,{8}2x-5[8:1],5-1[8:1],2b,6,{4}8b-6[8:1]b,
{16}8-2[8:1]b,,2,2,8-4[8:1]b,,4,4,8,,3,3,{4}1b-3[8:1]b,{16}1-7[8:1]b,,6,6,1-5[8:1]b,,5,5,1,,6,6,{4}8b,
{16}37,,2,1,3,,7,8,6,,15,,2,2,{8}4V68[4:1],,3,3,3,
{16}37,26,15,84,{8}7-2[8:1]/3-6[8:1],1x/5x,{1}3b/7b/E1/B8/Cf/B4/E5,,,,E
Re:MASTER
- 追加しました。修正等ありましたらよろしくお願いします。 -- けもがみ (2023-09-27 20:55:49)
最終更新:2026年04月11日 18:56