アットウィキロゴ

GEOMETRIC DANCE

アーティスト 山本真央樹

BPM BASIC ADVANCED EXPERT MASTER Re:MASTER
150 4 7+ 12 14 -

EXPERT MASTER Re:MASTER
譜面制作者 みそかつ侍 ロシェ@ペンギン -

BASIC


ADVANCED


EXPERT


MASTER

(150)
{8}36,{24}4,8,4,8,4,8,4,8,4,{16}1b,,5,8x,,4,1x,,5,8x,,4,2x,,5,7x,,4,2x,,5,7x,,4,3x,,5,6x,,,
{4}1bx/5bx,{24},1,8,2,7,2,7,2,7,3,6,3,6,3,6,4,5,4,5,4,5,

{16}2x,,3,34,,2/5h[16:11],,A1,B1,C,B6,A6,{4},{16}3x,,6,65,,7/4h[16:11],,A8,B8,C,B3,A3,{4},
{16}6x,,3,34,,2/5h[16:11],,A1,B1,C,B6,A6,{4},{16}3x,,6,65,,7/4h[16:11],,A8,B8,C,B3,A3,A2,A1,A8,,
{16}6x,,3,34,,26,,1x-5[8:1],8x,7x,6x,5x,{4},{16}3x/7x,,6,65,,73,,8x-4[8:1],1x,2x,3x,4x,{4},
{16}3x/7x,,3,34,,26,,1x,8x,7x,6x,5x,43,,16,,2,5,3,5,4,5,6,5,7,5,1,5,3,7,4,8,,,3,,3,4,,4,1x,,,,36,,4,5,

1x,7,2,8,3,1,4,2<5p4[16:11],,4,4,,3,,2,,{2}1h[8:3],{16}1,,1,4,,4,,,
2-5[8:1]/4,,,2/7>5[16:5],,,{2}7,{16}2,3,7-4[8:1]/4,,,7/2<4[16:5],,,{2}2,{16},,
8x,2,7,1,6,8,5,7>4q5[16:11],,5,5,,6,,7,,{2}8h[8:3],{16}8,,8,1,,3>5p4[16:11]/7,,,{1}6h[4:3],
{16}45,,3,3,2,2,1,1,8,7,6,5,4,3,2,1,,

7,7bx/5bx,,4,5,4,7,,4,4,,56,,24,,3qq4[4:1]/8,,,5,,6,6,,7,,5,6,,45,,,
7-4[8:1]/1,,,2-7[8:1]/7,,,2,,,6,,6,1,,7,6,2-5[8:1]/5,,,7-2[8:1]/2,,,7,,,3,,3,8,,4,5,
1x,7,2,8,3,1,4,2<5[16:3],,5,5,,4,,3,,2-5[8:1]/4,,,5,,6,6,,7,,4,5,,1s5[16:3]/6,,,{2}1x/8x,
{16}6,,6,5,,47,,,1x/8x,,2,6,3,6,4,6,5,6,5,6,7x/8x,,,,

1x/3x,,4,5,,5h[8:3],,7x,,1x,,3x,,7,5,6,2,4,3,8,5,6,1,4,3,8,1-5[8:1],,,1x/8x,,,
6x,,6,4,,4h[8:3],,2x,,8x,,6x,,2,4,3,7,5,6,1,4,3,8,5,6,1,8-4[8:1],,,8x/1x,,,
3x,,,,6,5,6,4x/7x,,,45,,3,4,3,5x/2x,,,54,,6,5,6,4x/7x,,,45,,2,4,2,
8hbx[16:29]/1bx,,,6,,5,5,,4,4,,3,3,,2,2,,1,,7,,2,,6,,{24}7,6,5,4,3,2,{4}1x,

{16}7,5,6,5,,E1,E8,E7,,E3,E4,E5,,6,6,,2,4,3,4,,E3,E4,E5,,E7,,
18,,3,3,,7,5,6,5,,B1/B8,,B4/B5,,A8,A7,A6,,A3,A4,A5,,
7,5,6,,2,4,3,6x,5,6,5,,45,45,,2x,4,3,5h[8:1],,4,4,6h[8:1],,4,4,7h[8:1],,4,4,,
7,5,6,4h[8:1],,5,5,3,,24,,1x/8x,,2,4,3,7,5,6,
1x-3[8:1]b,,4,4,1x-7[8:1]b,,6,6,1x>7qq3[16:13]b,,5,5,1x,{2},1bx,

{16}B2,,E7,B6,B5,E5,{8}B3/E4,E8/B7,E2/B2,E6/B5,B4/E4,E8/B8,{16}B1/E2,,,
E6,E5,E4,{8}A8,A7,A6,A5,A4,A3,A2/B2,A1/B1,A8/B8,A7/B7,,,
{16}2x/5x,,3,3,{8}4,35,24,13,82,71,86,{16}57,,,
4,5,4,{8}7h[8:1],8h[8:1],1h[8:1],2h[8:1],3h[8:1],4h[8:1],
{16}5x,,,1x/6x,,,3,4,2,5,1,6,{4}8x<3[4:1],,,{16},

2,{8}2h[4:3],3,3,4,4,5,5,45,{16}3,{8}4,4-7[8:1],{2}2-5[8:1],{16},
{8}7h[4:3],6,5,5,4,4^1[8:1],,,{16}7,8,7,,5,6,5,,{2}4x^2[16:1]/7x^5[16:1],
{8}2h[4:1],4,6h[4:1],4,3,{16}5,4,,45,,7^5[16:1],,4,{8}4,3,2,15,37,
{16}4x,5x,4x,5x,2x,4,3,7x,5,6,1x,4,3,8x,5,6,1x,5,3,8hbx[16:5],{4},
{32}2,3,4,5,6,7,8,1,{8}2x/7x,{24}8,3,8,3,8,3,8,3,8,

{8}1b/4b,{16}8,8,,47,,25,,3,5,,46,,57,,{4}4V61V35[2:1]/8h[4:3],,,{16},,
7,6,45,,3^6p1[4:1]/8,{4}3/8h[16:7],,{16},,,7,6,45,,3^6p2[4:1]/8,{4}3/8h[16:7],,{16},
{8}48,26,3x/5hx[4:1],1,{16}3,6,1,6,3,6,8,6,4,6,8,6,4hx[4:1],,8,,6,3,8,3,6,3,1,3,5,3,1,3,
5x,,2,2^5[8:1],,6,,27,,,8,,7,,6,,2x,5,4,5,4,5,7x,5,4,5,4,5,2x,,34,,

1bx/8bx,,46,46,,3,5,3,,2,2,,13,,68,,71,,82,,1,1,28,,71,,28,,1,1,28,,
54,,6^3q8[4:1]/1,61,,,3,,2,,1,1,,,2,3,54,,6^3q7[4:1]/1,61,,,{8}3,2,1,
15,37,4hx[4:1]/6x,8,{16}6,3,8,3,6,3,1,3,5,3,1,3,5hx[4:1],,1,,3,6,1,6,3,6,8,6,4,6,8,6,
4x,,7,7^4[8:1],,1,,72,,,{8}3,25,16,{16}7x,8,7,8,7,8,7x,7,7,7,7,7,7,7,6x/8x,,
2x,1,2,1,2,1,2x,2,2,2,2,2,2,2,3x/1x,,4x,5,3,6,2,7,1x,1,1,1,1,1,1,1,3bqq4[8:5]/8bqq5[8:5],,{1},

{16}2,,6,,6,5,,5,8x,,,,36,,4,5,1x,7,2,8,3,1,4,2<5p4[16:11],,4,4,,3,,2,,{2}1h[8:3],{16}1,,1,4,,4,,,
2-5[8:1]/4,,,2/7>5[16:5],,,{2}7,{16}2,3,7-4[8:1]/4,,,7/2<4[16:5],,,{2}2,{16},,
8x,2,7,1,6,8,5,7>4q5[16:11],,5,5,,6,,7,,{2}8h[8:3],{16}8,,8,1,,3>5p4V28V64[16:19]/7,,,{1}6hx[2:3],{2},
{16}5h[16:3],,,6h[16:3],,,7,,{1}7x>5q6[1:1]/1hx[4:5],{2},

{8}36,{24}4,8,4,8,4,8,4,8,4,{16}1b,,5,8x,,4,1x,,5,8x,,4,2x,,5,7x,,4,2x,,5,7x,,4,3x,,5,6x,,,
{4}1bhx[16:13]/5bx,{16}A2/B2/D3,,,A7/B7/D8,,,A4/D4/E4,,,A6/B6/D7,,
3,5,5,7,5,5,2,4,4,8,4,4,1,6,5,8,3,4-8[8:1]b,1,,,{1}4x/8bx`B4f,,,,E

Re:MASTER


  • 追加しました。修正等ありましたらよろしくお願いします。 -- けもがみ (2023-09-27 23:38:25)
名前:
コメント:

タグ:

+ タグ編集
  • タグ:
最終更新:2026年03月29日 14:58