| アーティスト |
Artifact vs. Dualcast |
BASIC
ADVANCED
EXPERT
MASTER
(201)
{16}34,,,56,,,27,,1,8,1,8,{4}2x/7x,
{1}Ch[4:21]/B1/B2/B6/B7,,,{2}8,8,7h[4:1],6h[4:1],{4}5,6,71,82,
{8}1,1,1,1,{16}2,8,2,8,3,7,3,7,{4}1w5[8:1]b,1,3h[4:1]/7h[4:1],,
{8}35,26,1/7-4[8:1],,4,,3,{16}3,4,{8}2h[4:1],3,5h[4:1],4,2-5[8:1],1,8,,
6,{16}6,5,{8}7h[4:1],6,4h[4:1],5,7-4[8:1],8,1x,1x,2x^5[4:1],2x,E6,C,E2,,
B4/B6,,8/2-5[8:1]b,1,27,,48,{16}6,5x,{8}7h[4:1],6,4h[4:1],6,7h[4:1],8,1,6,
2-5[8:1],2,5,6,7-3[8:1],7,8,1,2h[4:1]/4,,1,7h[4:1]/5,,4,2b/6b,,
7v4[8:1],8,71,,2x/6x,,2,3,4-2[8:1]/5,,6-4[8:1],,1,,2,{16}2,4,{8}3,
46,5-3[8:1]/7,,6h[4:1],,2-6[8:1],1,8x,8x,7x^4[4:1],7x,E4,C,E8,,
{16}2hx[8:1]/5hx[8:1],,,3hx[8:1]/4hx[8:1],,,{8}45,56,
{16}7,7,{8}5,46,3,24,6,57,1,24,8,37,{1}2^5[2:1]/6^1[2:1],
{2}5-2[8:1]/1-6[8:1],{16}15,,2,2,{8}4w8[8:1],35,{1}E2/E3/B2/E6/E7/B6/Cf,,,{4},,,
45,{1}1>7[4:3]/8,{2}8-4[4:1],2-6[4:1],{4}5<3[4:3],4,4,4,{1}4z8[2:1],
{4}7h[4:3]/8,8,6,6,7/B6,7/B5,8/B4,8/B3,{16}8/B2,B1,B8,B7,B6,B5,B4,B3,
E2,E1,E8,E7,E6,E5,E4,E3,{4}1xw5[8:1]/2x,1x,3hx[4:1]/7hx[4:1],,
{8}8b/2bx-5[8:1]b,,5,6bx-1[8:1]b,,5,4,4,3bx-8[8:1]b/5b,,8,7bx-4[8:1]b,,4,3,2,
7b/1bx-5[8:1]b,,5,4bx-8[8:1]b,,3,2,1,2bh[4:1]/6bhx[8:1],,,4b/8b<4[8:1]b,3,2,1,,
2bhx[4:1]/5bhx[8:1],,,4bhx[8:1]/7bhx[4:1],,,{16}2,1,2,1,
{8}3bhx[8:1]/8bhx[4:1],,,6bhx[4:1]/1bhx[8:1],,,{16}3,4,3,4,
{8}2bhx[8:1]/5bhx[4:1],,,3bhx[4:1]/8bhx[8:1],,,{16}6,5,6,5,
{4}47,4-1[8:1]/5-8[8:1],45,27,
1x-3[8:1]/5h[8:1],1x-7[8:1]/6h[8:1],1x-3[8:1]/4h[8:1],1x-7[8:1]/6h[8:1],
1x-3[8:1]/4h[8:1],1x-7[8:1]/6h[8:1],{8}1x-3[8:1]/4,5,1/6b,,
{4}8-6[8:1]/4h[8:1],8-2[8:1]/3h[8:1],8-6[8:1]/5h[8:1],8-2[8:1]/3h[8:1],
8-6[8:1]/5h[8:1],8/3x,{8}E3/B3,E5/B5,E7/B7,,
1-3[8:1],1,4-6[8:1],4,1,2,{16}3,7,3,7,{8}2-4[8:1],2,5<1[4:1]b,5,{16}1x,2,3,4,5b,,,,
4,6,4,6,3,7,3,7,2,8,2,8,1x,1x,1x,1x,{4}1x-5[8:1],1/7-4[8:1],7/2-6[8:1],2/8w4[8:1]b,{1}8b<1[4:13],,,,
7V15[4:3],3V51[4:3],8qq4[4:3],{8}3h[4:1],,4,6h[4:1],,5,3,,
{4}2b/8b,2,2/B4,2,2/B6,2,2/B8,2,2b/7b,7,7/B5,7,7/B3,7,7/B1,7,
4b/8b,B4/B8,2b/6b,B2/B6,4b/7b,2b/5b,3b/8b,6b/1b,
{8}5,5,46,46,{16}3,7,3,7,2,8,2,8,{4}1^4[8:1]*^6[8:1],1w5[8:1],1b,37,
{16}2b/5b,,3,4,{8}3,26,7-4[8:1],1-5[8:1],7,1,7,{16}6,5,{8}6,74,2-5[8:1],8-4[8:1],2,8,
2,{16}2,1,3,,7,8,{8}7,46,28,35,7/1-5[8:1],8,1/7-3[8:1],6,78,1,2b/8b,,
56,47,38,{16}2,1,{8}3-5[8:1],6-8[8:1],3,6,1-5[8:1],8x,1^3[8:1],7-4[8:1],1q5[8:1]b,7,
{4}1b,3-8[8:1]/7-4[8:1],37,{8}15,26,37,48,57,{16}6,4,{8}5,71,{16}7v4[8:1]/1v4[8:1],26,{8}35,7b/1b,,
25,{16}3,4,2,,6,5,{8}7-3[8:1],1-5[8:1],7,1,6,{16}6,5,7,,3,4,{8}2-6[8:1],8-4[8:1],2,8,
2,{16}7,1,8,,3,5,{8}4,35,71,46,3/7-4[8:1],8,7/1^4[8:1],8,1/7-3[8:1],6,71,,
12,34,56,{16}7,8,{8}6-4[8:1],3-1[8:1],6,3,8-4[8:1],1x,8^6[8:1],2-5[8:1],8p4[8:1]b,2,
{4}8b,6-1[8:1]/2-5[8:1],62,{8}3x/4x,56,78,12,3x/4x-7[8:1],,1,1-5[8:1],,8,8h[4:13],,
{1}4hb[1:1],,{2}5,6,{8}7-4[8:1],7,1-6[8:1],1,5x-2[8:1],5,8b,,
{16}15,,4,6,3,7,2,8,{8}2-4[8:1]b,1-6[8:1]b,2,1,3,{16}3,5,2,6,1,7,{8}8p4[8:1]*q4[8:1],17,8,,
3/5x,{16}2,1,3,,48,,7,5,6,,35,,71,,2,8,3,7,4,6,3,5,2,6,4,8,{8}3b/7b,,
2x-4[8:1],4,2-8[8:1],,2/7-5[8:1]b,,37,2,1^3[8:1],4,1-5[8:1],,1/7-4[8:1]b,,78,1,
2x-4[8:1],6,2-8[8:1],7-5[8:1]b,2,7,3,,7-3[8:1],1,7^5[8:1],1-5[8:1]b,7,1,8,,
1-3[8:1]/5,{16}8,7,6/1-5[8:1],,7-4[8:1]b,6,5/1^3[8:1],,7,,1,,6,,
8-6[8:1],,1,2,3/8-4[8:1],,2-5[8:1]b,3,4/8^6[8:1],,2,,8,,3,,
4,5,4,5,3,6,3,6,2,7,2,7,1,8,1,8,{4}1-6-3-8-4[16:5]b,1b/5bh[2:1],Cf,,
{8}2bh[4:1]/5bh[8:1],,,7bh[4:1]/4bh[8:1],,,{16}2,2,{8}1,
3bh[4:1]/8bh[8:1],,,6bh[4:1]/1bh[8:1],,,{16}3,3,{8}4,
2bh[8:1]/5bh[4:1],,,3bh[8:1]/8bh[4:1],,,{16}6,6,{8}5,
7bh[4:1]/4bh[8:1],,,7^4[8:1],4,3,2,,
1-3[8:1],4,1-5[8:1],6,1,{16}8,7,{8}62,62,4-8[8:1],5,4,6,7,7,{16}48,37,26,,
2,1,3,8,4,7,5,6,8,7,1,6,2,5,3x,3x,{32}6,5,4,3,2,1,8,7,62,3,4,5,6,7,8,1,
{8}26,48,2x-7[8:1]b/6x-3[8:1]b,,{1}2b/6b/B1/Cf/B5,,,,E
Re:MASTER
- 追加しました。修正等ありましたらよろしくお願いします。 -- けもがみ (2023-10-25 06:07:17)
最終更新:2026年04月12日 13:19