アットウィキロゴ

KHYMΞXΛ

アーティスト のらねこさい feat.ricono

BPM BASIC ADVANCED EXPERT MASTER Re:MASTER
220 6 8+ 12+ 14+ -

EXPERT MASTER Re:MASTER
譜面制作者 はっぴー 鳩サファzhel -

BASIC


ADVANCED


EXPERT


MASTER

(220)
{24}1x,8x,1x,8x,1x,8x,1x,8x,1x,8x,1x,8x,1x,8x,1x,8x,1x,8x,1x-5[8:1],8x,1x,8x,1x,8x,
{1}1x>8[4:23]`Cf,,Ch[1:2],,,{3}E4,E3,E2,{1}Ch[1:1],
{3}8,1,2,2/4<8[4:3],{6}3,3,{3}4,5V31[4:3],6,5,4-8-6[4:3],{6}3,3,{3}4,5-1^3[4:3],6,5,
4h[3:1],{6}5,5,{3}6h[3:1],7h[3:1],8h[3:1],1,{1}2b^7q1[2:3]/6b^3q5[2:3],,
{1}4b/8bh[1:1],{16}3,4,5,6,3,4,5,6,3,4,5,6,{4}Cf,

8b-4[8:1]*-6[8:1],,{16}3,5,3,5,2,4,2,4,{2}1-5[8:1]*-3[8:1],{16}6,4,6,4,7,5,7,5,
{16}8-4[8:1],,,4,,,2,,2-6[8:1]/5,,,6,,,8,,8b,,6,5,6b,,2,4,2b,,7,8,
{8}7b^4[8:1],,1,1-4[8:1]*-6[8:1],,1,,37,37,,
1h[8:1],{16}5,6,7h[8:1],,4,3,2h[8:1],,8,7,{8}6h[8:1],4,35,3-8[8:1]/5-8[8:1],,35,,
16,1/6h[4:1],,{16}2,3,4,5,8,7,6,5,{12}2,2,1,3,3,4,
{8}2-5[8:1],2,1,8,7-4[8:1],7,1,2,3-8[8:1],3,7,7,{12}7,8,6,2,1,3,{1}Cf/B4/B5/E5,
{16}3,6,3,6,3,6,3,6,4-8[8:1],5,4,5,{8}4,,1b/7b,,

5,5,3/4h[4:1],,1,1h[4:1],,6,{4}7h[4:1],6-4[8:1],6/4<8[4:1],2,{8}3,31,,48,48,,
5b-3[8:1]/6b,,7b,7b-3[8:1],,1b,1b,,45,,8,8,1-6[8:1]/2,,5,5-2[8:1],,6,7h[4:1],,
{16}1h[16:3],,,2h[16:3],,,4,,{4}4>8[4:1],6,4h[4:1],8,{2}2b-5[8:1]/6b-1[8:1],4b^1[8:1]/8b^5[8:1],
{8}26,,6,6,5/7-4[8:1],,4,3-8[8:1],,7,{4}6h[4:1],5-3[8:1],5^8[16:3]/6,2,
{8}1,1h[4:1],,7,26,,3b^8[8:1]b,4b,4b,,6b-1[8:1]b,5b,5b,,2h[4:1],,1b,38,7h[4:1],,5b,
{16}3,4,{8}2h[4:1],,1b,38,4/7h[4:1],,5b,,4b/6b,46,3b/7b,37,2b/8b,28,1bh[8:1]/7bh[8:1],,
{12}2,2,4,7,7,5,1,1,3,8-4[8:1],8,6,{1}8b/Cf,,

{4}4h[1:2],,,{1}5^8[2:1],{4},8^5[2:1],,,4,3h[2:1],,{16}4,,,45,,,57,,
{2}5h[4:1]/7h[4:1],1h[4:1]/2h[4:1],{4}7-3^5[16:5]/8,1,2,26,
{8}5b/6b,4bh[8:5]/7bh[8:5],{4},,,{8}1b/2b,8bh[4:1]/3b,{4},{8}8b/7b,1bh[4:1]/6b,{4},
25,{12}6,6,6,{4}57,{12}3,3,3,{4}42,{12}7,7,7,{4}86,1b,
2h[16:1]/5h[8:1],3h[8:1]/4h[16:1],4h[16:1]/5h[8:1],5h[8:1]/6h[16:1],
{16}4,7,4,7,4,7,4,7,3,8,3,8,3,8,3,8,
2b,1,2,1,2,1,2,1,2,1,2,1,2,1,2,1,2,1,2,1,2,1,2,1,2,1,2,1,2,1,2,1,
2b,3,2,3,2,3,2,3,2,3,2,3,2,3,2,3,2,3,2,3,2,3,2,3,2,3,2,3,2,3,2,3,
{1}1h[2:3],Chf[2:3],{4},,1,1,8,8,57,4-8[8:1]/5,{1}2-6-3V51[2:1]b/A4f,

{8}26,37,2-5[8:1]/6-1[8:1],37,{2}2V85[4:1]b/6V41[4:1]b,{8},26,,35,{16}6,4,6,4,{4}8b,
{8}73,62,7-4[8:1]/3-8[8:1],62,{2}7V14[4:1]b/3V58[4:1]b,{8},73,,64,{16}3,5,3,5,{4}1b,
{8}26,37,6-3[8:1]/2-7[8:1],37,{2}6V83[4:1]b/2V47[4:1]b,{8},48,,57,46,35,24,
{4}1bh[4:1]/5h[4:1],{16},,15,26,37,48,5b/1,,1,,15,84,73,62,
{16}5h[8:1]/1bh[8:1],,,1h[8:1]/5bh[8:1],,,2b/4,,4h[8:1]/5bh[8:1],,,5h[8:1]/7bh[8:1],,,7b/5,,

{8}4b/8,7b/3,4bv1[8:1]b/8v5[8:1]b,7b/3,{2}4b^6-1[4:1]b/8^2-5[4:1]b,{8},48,,56,{16}3,4,3,4,{4}2b,
{8}5/1b,2/6b,5v8[8:1]b/1bv4[8:1]b,2/6b,{2}5^3-8[4:1]b/1b^7-4[4:1]b,{8},26,,37,{16}6,4,6,4,{4}8b,
{8}3h[16:1]/7hb[16:1],6h[16:1]/2hb[16:1],3v6[8:1]b/7bv2[8:1]b,6h[16:1]/2hb[16:1],
{2}3^1-6[4:1]b/7b^5-2[4:1]b,{8},37,,{16}45,36,{4}2b^3-5[8:1]/7b^6-4[8:1],2b/7b,1b/8b,
{8}4h[16:1]/6h[16:1],46,3h[16:1]/7h[16:1],37,2h[16:1]/8h[16:1],28,{16}1,1,1,1,1,1,1,1,1,1,1,1,1,1,1,1,
{32}1,8,7,6,5,4,3,2,1,8,7,6,5,4,3,2,1,8,7,6,5,4,3,2,1,8,7,6,5,4,3,2,{4}1/Cf,,8-4[8:1],8b,

{16}2b/6b,,3,4,3,4,2h[8:1],,6,5,6,5,7h[8:1],,2,1,2,1,3h[8:1],,5,4,5,4,{8}5,46,37,37,
2b/8b,{16}1,7,1,7,1,,34,,6,5,7,5,6,5,7h[8:1],,8,6h[8:1],,1,5h[8:1],,{8}2,34,5/Cf,,
1b/7b,{16}2,1,2,1,3h[8:1],,7,8,7,8,6h[8:1],,3,4,2b,,2b,,6,5,7,5,{8}8,17,2h[8:1]/6h[8:1],,
{16}3b,5,3,5,3,,7b,4,7,4,7,,1b,5,1,5,2b,4b,3b,5b,4b,6b,5b,7b,
4bh[32:1],8bh[32:1],3bh[32:1],7bh[32:1],2bh[32:1],6bh[32:1],1bh[32:1],5bh[32:1],{2}Cf,,,

{2}6h[2:1],{1}4h[4:5],{4},5v4-1[4:1]*v6-1[4:1],,,3b/7b,
{16}2,2h[8:1],,4,4h[8:1],,5,5h[8:1],,7,7h[8:1],,3,3h[8:1],,1,1h[8:1],,8,8h[8:1],,6,6h[8:1],,4,4h[8:1],,
7,1,8,1,8,1,,3,4,3,4,3,,6,5,6,5,{24}6,7,8,1,2,3,6,7,8,1,2,3,6,7,8,1,2,3,6,7,8,1,2,3,
{1}4<8pp3[8:11],{4},5^7[8:1],,,
{24}2b,3,4,8bh,7h,6h,1b,2,3,7bh,6h,5h,2b,3,4,8bh,7h,6h,1b,2,3,7bh,6h,5h,
{32}4h/1b,2,3,4,5,6,7,8,1,2,3,4,5,6,7,8,1/6b,5,4,3,2,1,8,7,6,5,4,3,2,1,8,7,
{8}6/2b,{1}A8/B8/Cf/B4/A4,,,,E

Re:MASTER


  • 追加しました。修正等ありましたらよろしくお願いします。 -- けもがみ (2023-11-03 18:01:31)
名前:
コメント:

タグ:

+ タグ編集
  • タグ:
最終更新:2026年03月25日 22:00