アットウィキロゴ

天使光輪

アーティスト REDALiCE & cosMo@暴走P

BPM BASIC ADVANCED EXPERT MASTER Re:MASTER
203 6 8 12+ 14 -

EXPERT MASTER Re:MASTER
譜面制作者 サファ太 じゃこレモン -

BASIC


ADVANCED


EXPERT


MASTER

(203)
{8}35,{4}35,,,47,25,,,{8},46,46,{4},,,37,{8}1^4[4:1]/5^8[4:1]b,15,{4}15,,
3-1[8:1],7b,5/6-8[8:1],2b,3-1[8:1]/4,7b,5/6-8[8:1],2b,
{24}1b,2x,3x,4x,,,2b,3x,4x,5x,,,3b,4x,5x,6x,,,4b,5x,6x,7x,,,{4},
1-4[8:1]/8-5[8:1],18,{32}E5f,E4/E6,E3/E7,E2/E8,,,,,{4}2x/7x,

{16}3,4,3,,5,4,5,,3,4,3,,6,5,6,,4,5,4,,6,5,6,,4,5,4,,6,5,6,,3,4,3,,6,5,6,,3,4,3,,{4}57,24,
{16}6,5,6,,{8}3b/7b,,1-5[8:1]/2-5[8:1],12,12,,{16}6x,5x,6x,,4,5,4,,6,5,6,,3,4,3,,5,4,5,,{4}34,
{16}6,5,,7,8,,2,1,,3,4,3,{4}4z8^5[4:3],1h[8:1],2h[8:1],3-7[8:1]b,3,6bx/8bx,

{8}1/5h[8:1],1,2/5h[8:1],2,3/5h[8:1],3,{4}4-8[8:1]/5h[8:1],4/6h[8:1],
{8}1/7h[8:1],1,2/8h[8:1],2,1/3h[8:1],1,8/2h[8:1],8,7/1h[8:1],7,
{4}7-3[8:1]/8-2[8:1],7-5[8:1]/8-4[8:1],7-3[8:1]/8-2[8:1],78,,4b/7b,
{8}8/3h[8:1],8,7/3h[8:1],7,6/4h[8:1],6,{4}5-1[8:1]/4h[8:1],5/3h[8:1],8-4[8:1]/2h[8:1],8/1h[8:1],
{8}25,25,36,36,{16}4,7,4,7,4,7,4,7,{4}5h[1:1],{16}E6,E7,E8,E1,E2,E3,E4,E5,D6,E7,D8,E1,D2f,,{4},

{8}46,{4}4/6V84[4:1],2,3x>7v2[4:3],,{16}6,,,5,,,4,,{2}4x<8v5[4:3],
{16}1,,,2,,,3,,{2}3x>7v2[4:3],{16}6,,,5,,,4,,{4}4x>8[4:1]*<8[4:1],,,
{16}7,1,7,,{2}2x>6v3[4:3]/E5f/B4/B5,{16}7,,,8,,,1,,{2}1x<5v8[4:3],
{16}4,,,3,,,2,,{2}2x>6v3[4:3],{16}7,,,8,,,1,,{2}1x>5[4:1]*<5[4:1],

{16},,4,6,4,,3,,{1}1V38-4[2:1]/2h[4:3],{8}3x/5x,3h[4:1]/5,,2h[4:1],,1,1h[4:1],,
{16}B5,B6,B7,B8,E4,E3,E2,E1,A5,A6,A7,A8,{4}4x-1[8:1],8-5[8:1],2-7[8:1],7,1x/6x,
{16}B5/3h[4:1],B6,B7,B8,B1,,,,6h[4:1]/A4,A3,A2,A1,A8,,,,3,5,3,5,
{4}4-1[8:1],8-5[8:1],2,{16}1h[8:1]/6h[8:1],,,2h[8:1]/7h[8:1],,,38,,2-6[8:1],1,3,1,2,,,,
4h[8:1]/7h[8:1],,,3h[8:1]/6h[8:1],,,25,,3,4,2,5,3>6<3[2:7],4,2,5,3,,{4},{1}Chf[8:29],,,{2},{8},

{2}3x,{16}2,1,2,,7,8,7,,{2}6x/Cf,{16}7,8,7,,2,1,2,,{12}7b,5,5,6b,4,4,5b,3,3,4b,2,2,
{4}3b^6[8:1],{8}1,8,{4}1-4[8:1]*-6[8:1],1,3x/5x,{8}7,7x/5x,,2,2x/4x,,
{16}57,4,3,2,4,5,6,7,5,4,3,2,{4}1/8b,3x/6x-1[8:1],{8}6/5-2[8:1],4,5,
{4}8<4[4:1],4>8[4:1],8,{8}4-7[8:1],3-8[8:1],4,3b,,
{16}1x/6x,5,4,3,2,1,{8}84,26,35,17,,{16}8x/3x,4,5,6,7,8,{8}15,73,64,{4}82,
4V28[4:1],8V24[4:1],{8}5,6,7,6,{4}5V71[4:1],1V75[4:1],{8}4,3,2b,,

4hbx[4:1]/7hbx[4:1],,,1hbx[4:1]/8hbx[4:1],,,2bx/5bx,,{16}78,,,45,,,{8}12,34,56,{4}7b/8b,
6x/3x-8[8:1],{8}3/4-7[8:1],5,4,{4}1>5[4:1],5<1[4:1],1,{8}5-2[8:1],6-1[8:1],5,6b,,
{16}3x-1[8:1],,,4,{4}3b,{16}6-8[8:1]/2,,,5,{4}6b,{16}3-1[8:1]/7,,,4,{4}3b,{16}6-8[8:1]/2,,,5,{4}6b,
{16}3x,4,3,4,3,5,3,5,3,6,3,6,{8}2,,1x/8x,{16}2,1,{8}2,3<7[8:1],{2}7>3[8:1]b,

{1}6hx[1:1],5h[1:1],4h[1:1],3h[1:1],{2}4<8[4:3],3,5>1[4:3],6,4>8[2:1]*<8[2:1],,E3/B3/B4/B5/B6/E7,
7h[4:1]/8-3[8:1],{4}45,45,56,56,45,45,34,34,45,56,45,34,2^4[8:1],5,7^5[8:1],4,
{8}3bx,2bhx[4:3]/4bx-7-5[2:1],{4},,,{8}4bx,5bx-2-4[2:1]/7bhx[4:3],{4},,,
{8}6bx,2bxV84[8:3]/5bxV73[8:3],{4},,,5hx[2:1]/6hx[2:1],,{16},,6,5,{4}4b/7b,

{16}2h[16:3],,,3h[16:3],,,4,4,5h[16:3],,,6h[16:3],,,7,7,A4,A3,A2,A1,A5,A6,A7,A8,{8}4,35,2b/6b,,
{16}3/7^4[8:1],,4,3,{8}2,2,1-3[8:1],8-4[8:1],,,2^5[8:1],{16}5,6,{8}7,7,8-6[8:1],1-5[8:1],,,
{16}7x,8,1,2,3,4,{8}51,37,46,28,,{16}5x/2x,1,8,7,6,5,{8}48,26,35,17,,
36,{16}2,4,,7,5,,28,,7,5,,2,4,,18,,3,3,,6,6,,8/1-5[8:1],2,3,4,{4}5/1b,

{4}4h[8:1],3h[8:1]/5h[8:1],2h[8:1]/6h[8:1],1h[8:1]/7h[8:1],{16}28,,,45,,,71,,{8}2-5[8:1]/8-5[8:1],28,2b/8b,,
{16}3,4,3,4,2x-6[8:1],,5,6,7-4[8:1],,,,4,3,2,1,8^3[8:1],,5,6,7-2[8:1],,7,,4,,4,5,{8}6-2-4[4:1]b,,7b,8b,7b,,
{8}7-2[8:1],3-6[8:1],7,3,1x^6[8:1],{16}4,3,2-4[8:1],,2,,5,6,7,8,15,4,3,2,
1x/6x-8[8:1],,,5,{4}5/6b,{16}7/3-1[8:1],,,4,{4}4/3b,{16}2/6-8[8:1],,,5,{4}5/6b,{16}7/3-1[8:1],,,4,{4}4/3b,
{1}6hx[4:3]/8hx[4:3],{4}7/1b,6/2b,5/3b,B3/B4/E4/B6/B5/E6/E5f,

{8}2x-6[8:1],2,1-5[8:1],1,8-4[8:1],8,7-3[8:1],7,6-2[8:1],6,5-1[8:1],5,4^1[8:1],4,6,,
{16}7<3[4:1],,,8,{8}7,1,1,2,34,,5-2[8:1]/6,7-2[8:1],,,{16}3,4,5,6,7,8,1,2,
{8}3x/7x-3[8:1],7,8-4[8:1],8,1-5[8:1],1,2-6[8:1],2,3-7[8:1],3,4-8[8:1],4,5,5,
{16}1,2,3,4,{4}5h[4:1]/1,{16}8,7,6,5,{2}4v2[8:1]*v6[8:1]/8,{16}3x/5x,,,18,,,{8}46,5-2[8:1]/7-2[8:1],57,,,

{16}3x,4,3,4,2b,,6,5,6,5,7b,,3,4,3,4,2b,,6,5,6,5,7b,,3/4-7[8:1],2,1,8,1,2,3,,
6x,5,6,5,8b,,3,4,3,4,1b,,6,5,6,5,8b,,3,4,3,4,1b,,6/5h[8:3],7,8,1,8,7,6,,
3x,34,,6,65,,3,34,,6,65,,{4}27,{16}3x,24,,6,57,,3,24,,6,57,,{4}18,
{16}3x,24,,7,86,,2,31,,6,57,,1,2,3,4,5x/1x,,7,6,{8}53,24,1>5[8:1],5<1[8:1]b,{1}1b,,,,E

Re:MASTER


  • 追加しました。修正等ありましたらよろしくお願いします。 -- けもがみ (2023-11-13 21:37:32)
名前:
コメント:

タグ:

+ タグ編集
  • タグ:
最終更新:2026年04月11日 21:47