BASIC
ADVANCED
EXPERT
MASTER
(196){16}6,,,6,,,5/7,,{2}4h[4:1]/8h[4:1],{16}3,,,3,,,4/2,,{2}5h[4:1]/1h[4:1],{16}5/6,,,5/6,,,4/7,,{2}3h[4:1]/8h[4:1],{16}4/3,,,4/3,,,5/2,,{2}6h[4:1]/1>4[8:1],{8}5/6,,3/4,,2,1,8,7h[4:1],,8,8,1h[4:1],,E8/B8,,E6/B5,3,3,,1/8,,6,6,5/7h[4:1],,1,1,2h[4:1]/8>4[4:1],,,,,5/6,,3/4,,2,1,8,7h[4:1],,
E2/B1,,E4/B4,,5,5,,7/8,1,2,3-8[8:1]/4-7[8:1],,,,,{16}2x,,,2x,,,1x/3x,,7x,,,7x,,,8x/6x,,
{8}4/5,,2-5[8:1],2,1,,7-4[8:1],7,8,,2-5[8:1],2,1,,7-4[8:1],7,8,,3-8[8:1],3,5,5,,5/7,,1/8,1/8,,2bp5[8:1]/6b,,,,4/5,,7-4[8:1],7,8,,2-5[8:1],2,1,,7-4[8:1],7,8,,2-5[8:1],2,1,,6-1[8:1],6,4,4>5[2:1],,8b,,,,,,,4/5,,{4}3/6h[1:1],E4,E5,E6,7h[2:1],,B1/B8,,6/3h[1:1],E6,E5,E4,2h[2:1],,B8/B1,,6/5h[4:3],B7,B5,C,2/8h[4:3],E4,E2,C,{8}1/8,1/8,,2/4,,5/7,,3b/6b,{16},,5,4,5,,3/6,,2b/7b,,
{8},,2qq6[4:1]/8,,5,,4,,1,1,2qq5[4:1]/8,,4,,3,,8,8,1/7<3[8:3],,3,3>7[4:1],,7<3[4:1],,3,,1,1,,3b/7b,,8,8,7pp3[4:1]/1,,4,,5,,8,8,7pp4[4:1]/1,,
5,,6,,1,1,2-5[8:1]/8,,7,7-3[8:1],,1-5[8:1],,7,,1/8,1/8,,3b/6b,,1,1,,{4}3/4-1[8:1],2,6/5-8[8:1],7,2/4-8[8:1],3,7/5-1[8:1],6,{8}4/5,4/5,,6/8,,1/3,,2qq5[8:3]/7pp4[8:3],,,,,,2,2,,5/6,7,5/6,7,5/6,7,1/8,,4/3,2,4/3,2,4/3,2,8/1,,3/6h[4:1],,8,8h[4:1],,1,1h[4:1],,3,3,,1/8,1-5[8:1]/8-4[8:1],,1/8,,3/6,3/6,,7/8,,1/2,,4/5,,7/2,7/2>7[4:1],,8b,,,,
{8}1/2,,7/8,,6,5,4,3h[4:1],,4,4,5h[4:1],,E4/B4,,B1/E2,7,7,,1/8,,2,2,1/3h[4:1],,5,5,4<8[4:1]/6h[4:1],,,,,1/2,,7/8,,6,5,4,3h[4:1],,B5/E6,,
E8/B8,,2,2,,3/4,5,6,7-4[8:1]/8-3[8:1],,,,,{16}6x,,,6x,,,5x/7x,,3x,,,3x,,,4x/2x,,
{16}6h[16:3],,,5,,,5/6,,8h[16:3],,,1,,,1/8,,3h[16:3],,,4,,,3/4,,{4}2/5,8b,{16}3h[16:3],,,4,,,4/3,,1h[16:3],,,8,,,8/1,,6h[16:3],,,5,,,6/5,,{4}7/4,8b,{16}7h[16:3],,,5,,,5/7,,8h[16:3],,,1,,,2/7,,2h[16:3],,,4,,,2/4,,{4}1/5,7b,{16}2h[16:3],,,4,,,4/2,,1h[16:3],,,8,,,7/2,,{4}5/6,3/4,{8}3/6,2/7,1b/8b,,{4}2h[1:1]/7,E8,E1,E2,3h[2:1],,E8/E7,,7h[1:1]/2,E2,E1,E8,6h[2:1],,E2/E3,,7h[4:3]/8,E2,E8,C,6h[4:3]/5,E4,E6,C,{8}1/8,1/8,,5/7,,2/4,,2b/7b,{16},,5,4,5,4,5,,{8}2b/7b,,,
{8}2qq6[4:1]/8,,5,5,4,,1,1,2qq5[4:1]/8,,4,4,3,,1,1,8/2>6[8:3],,6,6<2[4:1],,2>6[4:1],,6,,8,8,,6b/2b,,8,8,7pp3[4:1]/1,,4,4,5,,8,8,
7pp4[4:1]/1,,5,5,6,,8,8,7-4[8:1]/1,,2,2-6[8:1],,8-4[8:1],,2,,1/8,1/8,,3b/6b,,8,8,,{4}6/5-1[8:1],7,3/4-8[8:1],2,7/5-2[8:1],8,2/4-7[8:1],1,{8}5/4,5/4,,3/1,,8/6,,7pp4[8:3]/2qq5[8:3],,,,,,6,6,,1/2,8,1/2,3,1/2,8,5/7,,8/7,1,8/7,6,8/7,1,4/2,,2/7h[4:1],,5,5h[4:1],,4,4h[4:1],,2,2,,1/8,
1-5[8:1]/8-4[8:1],,1/8,,3/6,3/6,,7/8,,1/2,,4/5,,2/7,2/7<2[4:1],,1b,,,,2/7,2/7,,1/3,,6/8,,4/5,,2/7,2<5[4:1]/7,,8b,,,,
{8}7/8,,1/2,,3,4,5,6h[4:1],,5,5,4h[4:1],,E5/B5,,E1/B8,2,2,,4/5,,7,7,6h[4:1]/8,,4,4,3h[4:1]/5>1[4:1],,,,,7/8,,1/2,,3,4,5,6h[4:1],,
E5/B4,,E1/B1,,7,7,,5/6,4,3,1-6[8:1]/2-5[8:1],,,,,{16}7x,,,7x,,,6x/8x,,2x,,,2x,,,3x/1x,,{8}4b/5b,,,3b/6b,,,2b/7b,,1b>8[4:3]/8b,E
Re:MASTER
(196)
{16}2h[8:1]/4h[8:1],,,2h[8:1]/4h[8:1],,,{8}15,{2}1^4[8:1]/5,
{16}7h[8:1]/5h[8:1],,,7h[8:1]/5h[8:1],,,{8}84,{4}8-2[8:1]/4,8,
{16}3h[8:1]/4h[8:1],,,3h[8:1]/4h[8:1],,,{8}25,{2}1^4[8:1]/6,
{16}7h[16:3],,,5h[16:3],,,6,,{2}3/8-4[8:1]b,
{16}2hb[16:3],,,4,3,,46,,7h[16:3],,,5,6,,53,,2h[16:3],,,4,3,,46,,
7h[16:3]/5,,,8,7,,16,,2h[16:3]/5,,,4,2,,35,,6h[16:3],,,5,6,,47,,
{8}3h[16:3]/8h[16:3],,38,27,16,8b,8b,,
{16}6hb[16:3]/4,,,1,5,,24,,3h[16:3],,,8,4,,57,,6h[16:3],,,5,7,,48,,
3h[16:3],,,4,2,,51,,6h[16:3]/8,,,5,6,,47,,3h[16:3]/8,,,4,3,,25,,
1h[8:1]/6h[8:1],,,2h[8:1]/7h[8:1],,,38,,5h[8:1]/7h[8:1],,,4h[8:1]/6h[8:1],,,35,,
{8}2b^7[4:1],,7,6,5,{4}4h[4:1],5-3[8:1],7-5[8:1],1h[4:1],{8}4,2,5,
3V57[4:1],,6,,8,8,,5/7h[4:1],,8,1-6[8:1],2,3,,4v5[4:1],,6,,8,8,4,
{4}3h[4:1],4-6[8:1],2-4[8:1],7h[4:1],{8}5,7,2,4-7-2[8:3],,3,3,3,3>6[2:1],,4b,{4},,,
6^1p5[2:1]/4,3,5q2p4[2:1],3,4q1[4:1],3h[2:1],,1,
3^8q4[2:1]/4,5,4p7q5[2:1],6,5p8[4:1],6h[2:1],,8,
4h[2:1]/5,1b,{8}3,4,5,4,7-5[8:1],,1h[4:1],,4,4,3,5,5h[4:1],,2,
{4}6/1^4[8:1],1/8^5[8:1],18,3b/7b,{16}2,4,{8}3,56,56,
7-4[8:1]b,4V61-5[8:3],7b,,2,2,2,,7-3[8:1]b,3V58-4[8:3],7b,,1,1,1,,
5,5,3b^5[8:1],6-8[8:1],3,6,3-1[8:1],5,3,6v3[8:1],3<8[4:1],6,1,2,3b,,
2-5[8:1]b,5V38-4[8:3],2b,,7,7,7,,2-6[8:1],4,2b,,8-4[8:1]b,1,{4}2-6[8:1]b/8,2/5^8[8:1]b,3/5b,
{8}21,8,7,61,2-5[8:1],5-2[8:1],2-7[8:1],7V51[4:1]*-5v8[4:1]b,7,,Cf,{4},
27,{8}4h[4:1]/5,,2,2^7[8:1],,4>6[4:1]b,,5b,,,{4}5-8[8:1]*q1[8:1],5,27,
{8}45,{4}4h[4:1]/5,2^7[8:1],4>6[4:1]b,Cf,,{8},65,4,3-5[8:1],6,
{4}3/7-3[8:1],7/2-6[8:1],2/8-4[8:1],8/1-5[8:1],1/7-3[8:1],7/2-6[8:1],12,7h[4:1],
{8}8b,,1b/2b,4b/8b,,8b/7b,5b/1b,,4b/3b,1b/5b,,5b/6b,{4}8b-4[8:1]/4b,8/1-5-1[4:1]b,
{8}6,{4}6,2^5[8:1]/8^5[8:1],28,2/8<2[4:1]b,{8}1,{4}1w5[8:1]b,A1/B1/Cf/B5/A5,,
{16}7h[16:3]/3b,,,5,6,,35,,2h[16:3],,,4,3,,64,,7h[16:3],,,8,6,,15,,
2h[16:3]/4,,,1,2,,38,,4/7h[16:3],,,5,7,,46,,3h[16:3]/5,,,4,2,,35,,
{8}4h[16:3]/6h[16:3],,46,57,48,1b,1b,,
{16}3hb[16:3]/5,,,8,4,,57,,6h[16:3],,,1,5,,24,,3h[16:3],,,4,2,,15,,
6h[16:3],,,5,7,,84,,1/3h[16:3],,,4,3,,25,,6h[16:3]/1,,,5,6,,47,,
3h[8:1]/8h[8:1],,,2h[8:1]/7h[8:1],,,16,,2h[8:1]/8h[8:1],,,3h[8:1]/7h[8:1],,,46,,
5-3[8:1],,,5h[16:3],,,,,5-7[8:1],,,5h[16:3],,,,,5-2[8:1],,,5h[16:3],,,,,{4}15,A2/D3/A3/D4/A4,
{16}4-6[8:1],,,4h[16:3],,,,,4-2[8:1],,,4h[16:3],,,,,4-7[8:1],,,4h[16:3],,,,,{4}84,A7/D7/A6/D6/A5,
{16}6-4[8:1],,,6h[16:3],,,,,6-8[8:1],,,6h[16:3],,,,,6-2[8:1],,,6h[16:3],,,,,{4}17,45,
{16}3^8[8:1],,,3h[16:3],,,,,3^6[8:1],,,3h[16:3],,,,,{8}3,4,5,6,7,8,1,2,
3hb[4:3],{16}E5,E4,E3,E2,E1,E8,E7,E6,E5,E4,{8}E3,,
8h[4:3],{16}E4,E5,E6,E7,E8,E1,E2,E3,E4,E5,{8}E6,,
4h[4:3],{16}D6,D5,D4,D3,D2,D1,D8,D7,D6,D5,{8}D4,,
6h[4:3],{16}D5,D6,D7,D8,D1,D2,D3,D4,D5,D6,{8}D7,,
1b,{16}7,5,6,,3,5,4,,7,5,6,,3,5,4,,7,5,6,,2,4,3,,6,5,7,,3,4,
1b,,{4}1^4[8:1]*v4[8:1],1^6[8:1]*v6[8:1],1,3b/8b,{16}2,1,{8}2,38,56,
7v4[8:1]b,4V61-5[8:3],7b,,2,2,2,,7-3[8:1]b,3^5-8-4[8:3],7b,,1,1,1,,
5,5,3b-5[8:1],6-1[8:1],3,6,3-8[8:1],8,3,6v3[8:1],3^5-8[4:1],6,8,1,2b,,
2v5[8:1]b,5V38-4[8:3],2b,,7,7,7,,2-6[8:1],4,2b,,8-4[8:1]b/7,1,2-6[8:1]b/8,,2/5^8[8:1]b,4,3/5b,,
21,8,7,61,2-5[8:1],5-2[8:1],2-7[8:1],7V51[4:1]b*^5v8[4:1],7,,Cf,{4},
36,{8}4h[4:1]/5,,2,2^7[8:1],,4>6[4:1]b,,5b,,,{4}5-8[8:1]*q1[8:1],5,27,
{8}45,{4}4h[4:1]/5,2^7[8:1],4>6[4:1]b,Cf,,{8},65,4,3-5[8:1],6,
{4}3/7-3[8:1],7/2-6[8:1],2/8-4[8:1],8/1-5[8:1],1/7-3[8:1],7/2-6[8:1],12,7h[4:1],
{8}8b,,1b/2b,4b/8b,,8b/7b,5b/1b,,4b/3b,1b/5b,,5b/6b,{4}8b-4[8:1]/4b,8/1-5-1[4:1]b,
{8}6b,{4}6b,2^5[8:1]/8^5[8:1],28,2/8<2[4:1]b,{8}1,{4}1-5[8:1],8b,4-8-4[4:1]b/6,
{8}7b,{4}7b,3^8[8:1]/5^8[8:1],35,3/5<3[4:1]b,{8}4,{4}4w8[8:1]b,A4/B4/Cf/B8/A8,,
2-4[8:1]/6-2[8:1],26,{8}15,84,73,6/2q6[8:1],,7^4[8:1],7,{4}1q5[8:1],7-2[8:1]*-4[8:1],7,
5-2[8:1]/1-6[8:1],51,{8}37,48,5-7v1[4:1]/1,,2,3,4h[4:1],,{16}E8,E7,E6,E5,E4,,
{4}1b-5[8:1]/2b-5[8:1],12,{8}46,35,24,{4}1/5<1[4:1],3,5V31[4:1],{8}8,7,6,5-7[8:1],5,1-5-3[4:1],1,8,7,6,,
{16}2h[8:1]/4h[8:1],,,5h[8:1]/6h[8:1],,,47,,1h[8:1]/2h[8:1],,,4h[8:1]/5h[8:1],,,26,,
{24}1b/7b,,,17,6,5,4,,,8b/2b,,,82,3,4,5,,,{4}1-5[8:1]/7-3[8:1],{1}1b/7b/B3/Cf/B5,,,,E
- 追加しました。修正等ありましたらよろしくお願いします。 -- けもがみ (2023-11-29 14:27:20)
- MASTER譜面を追加しました。修正等ありましたらよろしくお願いします。 -- Sugar (2026-08-15 19:13:46)
最終更新:2026年08月15日 19:13