アットウィキロゴ

Apollo

アーティスト TJ.hangneil

BPM BASIC ADVANCED EXPERT MASTER Re:MASTER
339 7 8+ 13 14+ -

EXPERT MASTER Re:MASTER
譜面制作者 鳩ホルダー EL DiABLO -

BASIC


ADVANCED


EXPERT

(274){1},,,,,,,,,{4}6,5/6,6,5/6,3,4/3,3,4/3,2h[2:1],4,6h[2:1],4,1h[2:1],4,7h[4:1],4,7,8/7,7,8/7,2,1/2,2,2/8,3/7,{8}4/6,4/6,,5/3,5/3,,{4}6,7,1/8,,3,4/3,3,4/3,6,5/6,6,5/6,7h[2:1],5,3h[2:1],5,8h[2:1],5,2h[4:1],5,2,1/2,2,1/2,7,8/7,7,7/1,6/2,{8}5/3,5/3,,4/6,4/6,,4,5,4,5,3,6,3,6,

{2}2-6[4:1],7-3[4:1],1-5[4:1],8-4[4:1],{4}3,3h[4:1],4,4h[4:1],5,5h[4:1],6,6,{2}7-3[4:1],2-6[4:1],8-4[4:1],1-5[4:1],{8}7,,4/6,4/6,,3/5,3/5,,{4}6,7,1/8,,{2}3-8[4:1],6-1[4:1],4-8[4:1],5-1[4:1],{4}2,2h[4:1],3,3h[4:1],4,4h[4:1],5,5,{2}6-1[4:1],3-8[4:1],5-1[4:1],4-8[4:1],{8}7,,1/7,1/7,,2/8,2/8,,2,7,2,7,3,6,3,6,

{8}4,,,4/5,,,3/4,,3,4,3,4,2,5,2,5,3,,,5/4,,,6/5,,6,5,6,5,7,4,7,4,6,,,4/7,,,3/8,,2,1,2,1,3,8,3,8,{1}2qq5[4:3],7pp4[4:3],{8}3,,,1/2,,,1/8,,7,8,6,1,7,8,6,1,7,,,8/7,,,8/1,,2,8,2,8,2,8,2,8,3,8,3,8,3,8,3,8,4,8,4,8,4,8,4,8,5,8,5,8,5,8,5,8,6,8,6,8,6,8,6-1[8:1],8,

(210){1},,,{4},,E2,E3,E4,D2,D3,D4,E5,E8,E7,E6,D8,D7,D6,C,{8}3,3h[4:1],,4,4h[4:1],,5,5h[4:1],,6,6,,5/7,,6,6h[4:1],,5,5h[4:1],,4,4h[4:1],,3,3,,4/2,,2,2h[4:1],,4,4h[4:1],,5,5h[4:1],,7,7,,5/8,,7,7h[4:1],,5,5h[4:1],,3,3h[4:1],,1,1,,1b/7b,,

(220){8}7h[4:5]/8,8,,6,6,,1,1,,4,4,,3/5,,2h[4:5]/1,1,,3,3,,8,8,,5,5,,6/4,,

(230){8}7h[4:5]/1,1,,6,6,,2,2,,5,5,,4/6,,

(240){8}2h[4:5]/8,8,,3,3,,7,7,,4,4,,2/5,,

(250){16}1x,8x,7x,6x,5x,4x,3x,2x,1x,8x,7x,6x,5x,4x,3x,2x,1x,8x,7x,6x,5x,4x,3x,2x,1x,8x,7x,6x,5x,4x,3x,2x,1x,8x,7x,6x,5x,4x,3x,2x,1x,8x,7x,6x,5x,4x,3x,2x,1x,8x,7x,6x,5x,4x,3x,2x,

(260){4}1xp6[4:5]*q4[4:5],,,,,,,,

(274){2}6h[1:4],,4,5,7,A8,A1,A2,3h[1:3],,5,4,2,1,8,1/7,{8}6h[8:3],,,5,,,4/7,,3h[8:3],,,4,,,5/2,,7h[8:3],,,8,,,1/6,,2h[8:3],,,1,,,8/3,,7,,7,,4,,4,,6,5,6,5,7,5,7,5,{4}8<1[4:3]*p1[4:3],,,,,,1b/8b,,

{8}5/6,,7,7h[8:3],,8,8,,4/3,,2,2h[8:3],,1,1,,5/6,,7,7h[8:3],,1,1,,4/3,,2,2h[8:3],,8,8,,5/7,,7,7h[8:3],,8,8,,4/2,,2,2h[8:3],,1,1,,{4}5/7,4/5,2/4,1/8,5/7,4/5,2b/7b,,{8}8/7,,6,6h[8:3],,5,5,,1/2,,3,3h[8:3],,4,4,,8/7,,6,6h[8:3],,4,4,,1/2,,3,3h[8:3],,5,5,,8/6,,6,6h[8:3],,5,5,,1/3,,3,3h[8:3],,4,4,,{4}7pp8-6>5[4:3]/8,,,,2qq1-3<4[4:3],,,,

{4}6,4/7,6/3,2/5,{8}3,3,4,4,2,2,5,5,{4}1-3[8:1],7-5[8:1],4,3,2-4[8:1],8-6[8:1],5,4,3,5/2,3/6,7/4,{8}6,6,5,5,7,7,4,4,{4}8-6[8:1],2-4[8:1],5,6,7-5[8:1],1-3[8:1],4,5,6,5/7,6/8,1/7,{8}2,2,8,8,1,1,7,7,{4}8-4[8:1],7-5[8:1],3,2,1-5[8:1],8-6[8:1],3,2,1,2/8,1/7,6/8,{8}6,6,4,4,5,5,3,3,{4}4v7-5-8[1:1]*v1-3-8[1:1],,,,,,1b/7b,,

{8}1h[8:3],,,3h[8:3],,,5h[8:3],,,7h[8:3],,,1,,1s5s1[4:5],,{1},,{12}1x,2x,3x,4x,,,8x,7x,6x,5x,,,1x,2x,3x,4x,,,8x,7x,6x,5x,,,{4}3xV15-8-4[1:1],,,,,,1b/8b,,{8}7,7,6,6,5,5,4,4,3,3,2,2,1,1,1/2,,2,2,3,3,4,4,5,5,6,6,7,7,8,8,8/7,,1,1,2,2,3,3,4,4,5,5,6,6,7,7,8,8,2,2,4,4,5,5,7,7,2,2,4,4,5,5,7-3[16:3],7,

(200){4},,,

(240){8}3,3h[4:1],,4,4h[4:1],,5,5h[4:1],,6,6,,5/7,,6,6h[4:1],,5,5h[4:1],,4,4h[4:1],,3,3,,4/2,,

(250){8}2,2h[4:1],,4,4h[4:1],,5,5h[4:1],,7,7,,5/8,,7,7h[4:1],,5,5h[4:1],,3,3h[4:1],,1,1,,1b/7b,,

(270){8}6,5,6,5,7,8,6,1,5,2,4,3,5b,,

(285){8}3,4,3,4,2,1,3,8,4,7,5,6,4b,,

(300){8}2,1,2,1,3,4,2,5,1,6,8,7,1b,,

(315){8}7,8,7,8,6,5,7,4,8,3,1,2,8b,,

(339){8}7b<7[4:34]b/3bh[4:35],E

MASTER

(274)
{4}5,5,5,45,
{8}4,4,6,3,5,5,3,4,2h[4:1],,{12}4,3,4,3h[4:1],,,1,2,1,{8}2,8,3,7,4,6,5,7,4,6,3,5,2-4[8:1],,1,,
{8}7,7,5,6,4,4,5,3,{4}4v5[8:1],2,8v1[8:1],7,6-8[8:1],{8}2,2-4[8:1],,1,1,,7-5[8:1],8,{4}7-1v3[8:3],,,
{8}5,5,3,4,2,2,4,3,1h[4:1],,{12}2,8,2,8h[4:1],,,6,7,6,{8}7,5,8,4,1,3,4,2,5,1,6,8,7-5[8:1],,4,,
{8}2,2,1,3,8,8,1,7,{4}8v1[8:1],6,4v5[8:1],3,2-4[8:1],{8}6,6-8[8:1],,5,5,,2,2,8,8,{2}37,

{4}6^4[4:1]*^4[4:1],4>8[2:1]*>8[2:1],C,8<4[2:1]*<4[2:1],,4^2[4:1]*^2[4:1],C,8,
{8}B6,B5,B4,B3,B2,,E6,E5,E4,E3,E2,,{4}8,17,
2^4[4:1]*^4[4:1],4<8[2:1]*<8[2:1],C,8>4[2:1]*>4[2:1],,4^6[4:1]*^6[4:1],C,8,
{8}8h[4:1],,1,7h[4:1],,8,6h[4:1],,4,4,{4}5,35,46,
{4}7^1[4:1]*^1[4:1],1>5[2:1]*>5[2:1],C,5<1[2:1]*<1[2:1],,1^3[4:1]*^3[4:1],C,5,
{8}E8,E1,E2,E3,E4,,A7,A8,A1,A2,A3,,{4}5,46,
3^1[4:1]*^1[4:1],1<5[2:1]*<5[2:1],C,5>1[2:1]*>1[2:1],,1^7[4:1]*^7[4:1],C,5,
{8}5h[4:1],,4,6h[4:1],,5,7h[4:1],,1,1,8,8,{4}2,13,

{8}2h[16:1]/4h[16:1],,,4h[16:1]/6h[16:1],,,4h[16:1]/6h[16:1],,5,5,5,5,5,5,5,5,
6h[16:1]/4h[16:1],,,4h[16:1]/2h[16:1],,,4h[16:1]/2h[16:1],,3,3,3,3,3,3,3,3,
2h[16:1]/4h[16:1],,,7h[16:1]/1h[16:1],,,7h[16:1]/1h[16:1],,8,8,8,8,8,8,8,8,
{12}1h[2:1]/7,6,5,4,3,2,,8,7,6,5,4h[3:1],1,2,3,,5,6,7,8,1,2,3,4,
{8}5h[16:1]/6h[16:1],,,1h[16:1]/8h[16:1],,,2h[16:1]/4h[16:1],,3,3,3,3,3,3,3,3,
2h[16:1]/4h[16:1],,,4h[16:1]/6h[16:1],,,6h[16:1]/8h[16:1],,7,7,7,7,7,7,7,7,
78,8,8,8,8,8,8,8,81,1,1,1,1,1,1,1,2,2,2,2,3,3,3,3,4,4,4,4,5,5,5,5-1[16:169],

(210)
{1},,,{2},
{8}3,3,4,2h[16:1],2h[16:1],4,4,3,2h[16:1],2h[16:1],3,4,5,6,
7,7,5,6h[16:1],6h[16:1],5,5,6,7h[16:1],7h[16:1],5-1[8:1]b,8,5b,,
8,8,2,2,{16}7,6,{8}5,8,8,6,6,{16}7V51[4:1],8,{8}1,,,
2,2h[8:1],8,8,{16}2,3,{8}4,1,1,3,3,{16}2-6[8:1],1,{8}8,,,
7,7h[8:1],1,1h[8:1],{16}6,5,{8}4,8,8,3,3,{16}7v1[8:1],6,{8}5,,,
2,2h[8:1],8,8h[8:1],{16}3,4,{8}5,1,1h[8:1],6,6,{16}2-8[8:1],3,{8}4,,,
(220)
{8}7,7h[8:1],1,1h[8:1],{16}8,7,6,5,{8}42,2h[8:1],5,5h[8:1],{16}8-5-7[4:1],1,2,3,{8}4,,
2,2h[8:1],8,8h[8:1],{16}1,2,3,4,{8}57,7h[8:1],3,3h[8:1],{16}1V35[16:3],8,7,6,{8}5,,
(230)
7,7h[8:1],5,5h[8:1],{16}3,2,1,8,{8}73,3h[8:1],5,5h[8:1],{16}7V51[4:1],8,1,2,{8}3,,
(240)
4,4h[8:1],8,8h[8:1],{16}6,5,4,3,{8}26,6h[8:1],4,4h[8:1],{16}2,1,8,7,{4}6/2b,
(250)
{16}1,5,1,5,1,5,1,5,1,5,1,5,1,5,1,5,1,5,1,5,8,4,8,4,8,4,8,4,
7bx>7p7[35.7#128:33]b,3bx<3p3[37#768:205]b,7bx,3bx,7bx,3bx,7bx,3bx,7bx,3bx,
7bx,3bx,7bx,3bx,7bx,3bx,7bx,3bx,7bx,3bx,7bx,3bx,7bx,3bx,7bx,3bx,7bx,3bx,
(260)
{1},,

(274)
{1},,,,,,,,
{8}5h[4:1],,,5h[4:1],,,45,,3h[4:1],,,3h[4:1],,,34,,
5h[4:1],,,4h[4:1]/6h[4:1],,,56,,4h[4:1],,,5h[4:1]/3h[4:1],,,43,,
5,5,3,3,6,6,4,4,36,36,36,36,45,45,45,4h[8:5]/5h[8:9],{1},{12}3,2,1,8,7,6,3,2,1,8,7,6,

{8}3p5[4:1]b,,5<3[8:3]b,5,,4,4,,7p1[4:1]b,,1>7[8:3]b,1,,8,8,,
1,8,1/7h[4:1],,1,5h[4:1],1,,1/3h[4:1],,1,5h[4:1],1,,17,,
8q6[4:1]b/7,,6>8[8:3]b,6,,7,7,,4q2[4:1]b,,2<4[8:3]b,2,,3,3,,
{16}1,8,7,,5,,1,2,{8}3,6,56,,7-5[8:1],8,{4}7-1v3[8:3],,,
{8}5-7v4[4:1],,4V68-2[8:3],4,,3,3,,4-2v5[4:1],,5V31-7[8:3],5,,6,6,,
5,6,5/7h[4:1],,5,1h[4:1],5,,5/3h[4:1],,5,1h[4:1],5,,57,,
{8}8-6v1[4:1],,1V75-3[8:3],1,,2,2,,8-2v7[4:1],,7V13-5[8:3],7,,6,6,,
{16}7,8,1,,4,,7,6,{8}5,3,43,,2-6[8:1],1,2/8-4[8:1],,{2}83,

{8}6,5,6,3,4,3,5,5,2^4[8:1],2,8-4[8:1],8,1-5[8:1],1,7^5[8:1],7,3,3,4,2,5,1,6,6,5,7,4,8,3,3,31,,
2,8,2,7,1,7,8,8,7^5[8:1]b,7,1-5[8:1]b,1,8-4[8:1]b,8,2^4[8:1]b,2,7,7,5,5,2,2,4,4,5,5,5,5,5,5,46,,
7,5,6,2,4,3,7,7,1-3[8:1],1,8-4[8:1],8,7-3[8:1],7,6-4[8:1],6,2,2,1,3,8,4,7,7,8,6,1,5,2,2,24,,
3,1,2,6,8,7,3,3,8-6[8:1]b,8,1-5[8:1]b,1,2-6[8:1]b,2,3-5[8:1]b,3,8,8,6,6,4,4,2,2,8,8,8,8,{4}17,35,

2^7[4:1],7^4[4:1],4^1[4:1],1^6[4:1],6^3[4:1],3^8[4:1],8^5[4:1],5^2[4:1],2<5[16:7],,,
{16}E5,E4,E3,E2,E1,E8,E7,E6,{8}E5,,7,7,78,,
{16}1,2,3,4,1,2,3,4,8,1,2,3,8,1,2,3,7,6,5,4,7,6,5,4,8,7,6,5,8,7,6,5,
{8}1h[8:3],,,4h[8:3],,,2h[4:1],,,{16}8,1,8,1,8,1,{4}8,36,
{8}7-4[8:1],8,7,1-5[8:1],6,1,8-4[8:1],3,8,2-5[8:1],1,2,8,,17,,
2-5[8:1],1,2,8-4[8:1],3,8,1-5[8:1],6,1,7-4[8:1],8,7,1,,82,,
7b-4[8:1]b,3,7,1b-6[8:1]b,5,1,4b-7[8:1]b,3,4,2b-5[8:1]b,1,2,8b,8,8,8,
5b-2[8:1]b,6,5,7b-4[8:1]b,8,7,1b-5[8:1]b,3,1,4b-8[8:1]b,2,4,{4}1bw5[8:1]b,1b,
(200)
{4},,,

(240)
{8}5h[4:1]/4,4,4,6,6,6,5,5,5,6,6,6,65,,4h[4:1]/5,5,5,3,3,3,4,4,4,3,3,3,24,,
(250)
3h[4:1]/4,4,4,5,5,5,4,4,4,6,6,6,57,,7h[4:1]/6,6,6,5,5,5,4,4,4,3,3,3,24,,
(270)
{16}2h[4:1]/1b,8,7,6,,,1h[4:1]/8b,7,6,5,,,8h[4:1]/7b,6,5,4,,,{8}1h[8:1],4h[8:1],3h[8:1],6h[8:1],,
(285)
{16}7h[4:1]/8b,1,2,3,,,8h[4:1]/1b,2,3,4,,,1h[4:1]/2b,3,4,5,,,{8}8h[8:1],5h[8:1],6h[8:1],3h[8:1],,
(300)
{8}8b,7,6,5,4,3,{12}2b,3,4,5,6,7,8,1,2,3,4,5,
(315)
{16}8b,7,6,5,4,3,2,1,8,7,6,5,{24}2b,3,4,5,6,7,8,1,
A2/D3,A3/D4,A4/D5,A5/D6,A6/D7,A7/D8,A8/D1,A1/D2,2bx,3bx,4bx,5bx,6bx,7bx,8bx,1bx,
(339)
{1}2bx<2>2[2:17]b*<2[4:17],,,,,,,,,,,,E

Re:MASTER


  • 追加しました。修正等ありましたらよろしくお願いします。 -- けもがみ (2023-12-10 22:05:25)
  • スライドの速さを一部修正しました。 -- けもがみ (2023-12-15 10:57:44)
  • EXPERT譜面を追加しました。修正などありましたらよろしくお願いします。 -- Sugar (2026-02-04 23:21:13)
名前:
コメント:

タグ:

+ タグ編集
  • タグ:
最終更新:2026年04月05日 18:43