アットウィキロゴ

raputa

アーティスト sasakure.UK × TJ.hangneil

BPM BASIC ADVANCED EXPERT MASTER Re:MASTER
339 7 8+ 13+ 14+ -

EXPERT MASTER Re:MASTER
譜面制作者 佑 project raputa -

BASIC


ADVANCED


EXPERT

(230){1}3h[4:27],,,,{8}2,,,1,,,8,,,7,,,6h[4:5],,,,,,,,,,,,4/5,,3,3/4,,6,6/5,,3h[4:1],,4,,5,5,2,2,4,,3,3/4,,5,5/4,,6h[4:1],,5,,4,4,7,7,5,,6,6/5,,4,4/5,,
2h[2:1],,1,,1h[2:1],,8,,8h[2:1],,7,,7h[2:1],,2,,2h[2:1],,6,,6,,3/5,,6h[4:1],,5,6h[4:1],,5,5/6,,7h[4:1],,8,,3,3,1,1,2,,7,7/8,,1,1/8,,2h[4:1],,1,,6,6,8,8,7h[4:1],,1,1,,2/6,2/6,,
7,7,7h[4:1],,6,6,6h[4:1],,5,5,5h[4:1],,4,4,4,,3h[4:1],,4,4,,4/5,4/5,,5/6,5/6,4/7,4/7,3/8,3/8,1/2>7[1:2],,

{1}E1,B3,B6,{4},,7,7<2[1:2]/E1,{1},B6,B3,{4}1/8,,{32}A8,D8,A7,D7,A6,D6,A5,,A1,D2,A2,D3,A3,D4,A4,,

{8}6hx[4:1],,5x,5x,,6,6,4,3h[4:1],,4,4,,3,3,5,6h[4:1],,5,5,,3,3,2/4,2h[4:1]/4h[4:1],,,4h[4:1]/6h[4:1],,,4/6,,7h[4:1],,8,8,,7,7,1,2h[4:1],,1,1,,2,2,8,7h[4:1],,8,8,,2/5,2/5V74qq2[4:3]b,,{1},{8}1h[4:1]/3h[4:1],,,1/3,,8,8,7,5h[4:1]/6h[4:1],,,4/5,,2,2,1,8h[4:1]/7h[4:1],,,
1/8,,2,2,4,1h[4:1],,7,7,,2/6,2/6,,7,8,1,2h[4:1]/4h[4:1],,,3/4,,2,1,8,7h[4:1]/5h[4:1],,,6/5,,8,7,1,2h[4:1],,1,1/2,,3/7,3/7,3/7,3/7,4/6,4/6,4/6,,

{8}7,7,7,5,5,5,8,8,8,3V17[4:1],3,,,,6,6,6,5,5,5,8,8,8,5V31[4:1],5,,,,6,6,6,1,1,1,4,4,4,2V41[4:1],2,,,,8,8,8,1,1,1,4,4,4,3V51[4:1],3,,,,8,8,8,3,3,3,4,4,4,2-5-1[4:1],2,,,,7,7,7,5,5,5,8,8,8,3,3,3,3/4,,
(240){2}B1/E2/B2,E4/B4/B3,(250){2}E6/B6/B5,E8/B8/B7,(260){12}E2,,E3,,E4,,E6,,E7,,E8,,(270){16}A1,D2,A2,D3,A3,D4,A4,D5,A5,D6,A6,D7,A7,D8,A8,D1,{1}1hx[1:7],,,,,,,,

(230){1}D8/E7/D6/C,C,E1/D8/E7/D6,B8/B5/B4,D6/E7/C/E1,C,1>5[4:5]b*<5[4:5]b,,{8}3/5,,4/3h[2:3],,5,,4,4,4,,5,,4,5,6,,6/4,,5/6h[2:3],,4,,5,5,5,,4,,5,4,3,,2h[4:1],,4,4h[4:1],,5,5,,7h[4:1],,5,5h[4:1],,4,4,,3,3,5,4,6,6,4,5h[8:5],3h[2:1],,,,,,3b/5b,,

{8}1h[4:1]/8,,5,,2/4,5,4/6,,8h[4:1]/1,,4,,7/5,4,5/3,,1h[4:1],,4,5h[4:1],,4,3h[1:1],,5,5,5,,6,,7,,8h[4:1],,6,8h[4:1],,1,1/8,,1h[4:1],,3,1h[4:1],,8,8/1b>4[4:3],,7,,5,,6,,5<8[4:3],,3,,1,,2,,1,,{4}3/7h[4:1],5,{16}6,5,6,5,6b,,,,{4}2/4h[4:1],3,{16}3,4,3,4,3b,,,,{4}4/5h[4:1],4,{16}4,5,4,5,3b,,,,{8}2h[4:3]/4,4,4,,6,6,5,,{4}3/4h[4:1],3,{16}2,1,2,1,2b,,,,{4}6/5h[4:1],6,{16}7,8,7,8,6b,,,,{8}1hx[4:1],,7,7hx[4:1],,3,3,,{4}5h[12:1]/6h[12:1],4h[12:1]/3h[12:1],5h[12:1]/7h[12:1],2h[12:1]/4h[12:1],

{8}7,7,1,1h[40:63],,5,,4,,3,3,,{20}D4,A4,D5,A5,D6,A6,D7,A7,D8,A8,{8}2,2,1,2h[40:63],,6,,5,,4,4,,{20}D5,A5,D6,A6,D7,A7,D8,A8,D1,A1,{8}3,4,2,6,5,7,2,2,7,8,6,2,1,3,8,8,2,2h[8:1],1,1h[8:1],8,8,7,,4/6,4/6,4/6,4/6,3/5,3/5,3/5,,2/6,2/6,,4/7,4/7,,5/6,,7b/4b,7b,7b/5b,7b,7b/4b,7b,7b/5b,,
4/6,4/6,,2/4,2/4,,1/5,,2b/4b,2b/4b,2b/4b,2b/4b,2b/4b,,1b/5b,,3,3h[8:1],4,4h[8:1],5,5h[8:1],6,6h[8:1],7,7h[8:1],8,8h[8:1],1,1h[8:1],2,2,3,3,4,4,1,1,8,8,1/8,1/8,1/8,1/8,{16}7b,2b,7b,2b,7b,,,,

{1}3bh[4:11]/6bh[4:11],,,{8}7x,8x,1x,2x,,1b/8b,1b/8b,,{4}1,1-5[4:1],2,2-6[4:1],3,3-7[4:1],4,4-8[4:1],5,5-1[4:1],6,,{8}8x-4[4:1],7x,6x-2[4:1],,,,,,3,3,4,2h[4:1],,4,5,6h[4:1],,5,5,7h[4:1],,5,5/6,,4,3,5,6h[4:1],,4,4,,2x,1x,8x,7x,,1b/8b,1b/8b,,{4}8,8-4[4:1],7,7-3[4:1],6,6-2[4:1],5,5-1[4:1],4,4-8[4:1],3,,{8}1x-5[4:1],2x,3x-7[4:1],,,,,,

(230){8}6b,6,6,5,5,5,8,8,8,4-2[8:1],4-6[8:1],,,,(240)1b,1,1,7,7,7,2,2,2,4-6[8:1],4-2[8:1],,,,(245)8b,8,8,3,3,3,4,4,4,1-3[8:1],1-6[8:1],,,,(250)4b,4,4,7,7,7,5,5,5,8-6[8:1],8-3[8:1],,,,(260)5b,5,5,1,1,1,4,4,4,3-1[8:1],3-6[8:1],,,,(265)2b,2,2,7,7,7,1,1,1/8,,2/7,,3b/6b,,(290){12}4b,5,4,5,4,5,4,5,4,5,,,(295)3b,6,3,6,3,6,3,6,3,6,,,(310)2b,7,2,7,2,7,2,7,2,7,,,(315)1b,8,1,8,1,8,1,8,1,8bx-4[4:27]b,1,8,(339){1},E

MASTER

(230)
{1}8h[8:41]/1-4^3-6^5-8^7-2^1[2:7],,,,
{8}1,,,2,,,3,,,4h[8:21],,,,,,,{1}Ch[1:1],{4}B1/B2,,,8-4[8:1]b,

8b,{16}35,,,2,{8}4^7[8:1],4,1-5[8:1],1,8,,{16}46,,,7,{8}5^2[8:1],5,8-4[8:1],8,
1,,{16}35,,,2,{8}4,4,3/5h[4:1],,
{16}4,3,2,1,8,7,6,5,8,7,6,5,8,7,6,5,4b,3,2,1,8,7,6b,5,8,7,6,5,8,7,6b,5,
1,2,3b,4,5b,6,7,8,5b,6,7,8,5,6,7b,8,1,2,3b,4,5,6,7,8,5,6,7b,8,5,6,7,8,
{8}1h[4:1],,5,2h[16:1]/6h[16:1],,48,4/8-4[8:1]b,,
8b/1h[16:1],,{16}35,,,2,{8}4^7[8:1],4,1-5[8:1],1,8,,{16}46,,,7,{8}5^2[8:1],5,8-4[8:1],8,
1,,{16}35,,,6,{8}4,4,4h[4:1]/5,,
{16}5,6,7,8,1,2,3,4,1,2,3,4,1,2,3,4,5b,6,7,8,1,2,3b,4,1,2,3,4,1,2,3b,4,
8,7,6b,5,4b,3,2,1,4b,3,2,1,4,3,2b,1,{4}8-4-2[4:1]*-4-6[4:1]/4,,,{8}17,,48,8,37,3,26,6,15,1,

{1}4h[8:6]/8h[8:3],1h[8:3]/3h[8:6],{8}3h[8:3],,,4h[8:3],,,5h[8:6],,,6h[8:5],,,,,,,
{1}7h[8:6]/8h[8:3],6h[8:6]/7h[8:3],{8}5h[8:3],,,4h[8:3],,,3h[8:3],,,,,,{32}E2,E1,E8,E7,E6,E5,E4,E3,{4}E2,
{8}4h[4:1],,,4h[4:1],,,4,4,3h[4:1]/5h[8:1],,5,3h[8:1]/5h[4:1],,3,35,,
5h[4:1],,,5h[4:1],,,5,5,6hb[4:1]/4h[8:1],,4,6h[8:1]/4hb[4:1],,6,6b/4,,
45,4v3[8:1]/5,,5v6[8:1],,,,27,{16}1,8,1,8,{8}1,,,7,8,7,2,1-6[8:1],2,1-4[8:1],,1,,6h[8:1],
{12}4,4,5,3,3,6,2,2,7,1,1,8,{8}2-5[8:1],7-4[8:1],2,7,,1,8,7^5[8:1],1,7,,
2^4[8:1],8,2,7,6h[4:1],5,5,,4b/7b,{16},,3,4,5,6,7,8,15,4,3,2,1,84,73,62,
{8}51,8^3[8:1]/4^7[8:1],,84,,{8},36,{4}4-1[8:1]/5-8[8:1],45,{8}2b/7b,
{16},,6,5,4,3,2,1,84,5,6,7,8,15,26,37,{8}48,1-5[8:1],,14,,26,2-6[8:1]b,,
8b/Cf,8b,8b,8b,2b/8b,2b/8b,2b/8b,2b/8b,

1^3[8:1],8,1,7^5[8:1],1,7,8^2[8:1],7,8,5,5,25,{16}3,4,3,4,
{8}3-1[8:1],5,3,8^6[8:1],3,8,3^5[8:1],8,3,7-3[8:1],3,7,1b,,
2-6[8:1],1,2,1^7[8:1],2,1,3^5[8:1],1,3,7,7,74,{16}6,5,6,5,
{8}6-2[8:1],4,6,5^3[8:1],7,5,7^1[8:1],5,7,2-6[8:1],4,2,8b,,
7-4[8:1],5,7,3-8[8:1],5,3,6-3[8:1],1,6,2,2,28,{16}7,1,7,1,
{8}7-5[8:1],8,7,2-8[8:1],4,2,6-4[8:1],1,6,2,2,2,1b/8b,,

(240)
{6}57,57,57,35,35,35,
(250)
13,13,13,18,18,18,
(260)
18,24,45,57,81,24,
(270)
2h[12:1]/4h[12:1],1h[12:1]/8h[12:1],5h[12:1]/7h[12:1],4h[12:1]/5h[12:1],2h[12:1]/4h[12:1],1h[12:1]/8h[12:1],
{1}1hb[4:27]/8b<8<8^7-5^4-2^1-7^6-4^3-1^8-5[4:26],,,,,,,,

(230)
{1}6^5-8^7-2[4:5]/5h[4:6],,4^3-6^5-8[4:5]/3h[4:14],,
{8}D6/E6/B5/B6,,,E4,,,B1/E2/B2/E3,,,D8/B7/B8,,,A5/B5/E6/B6,,,,{1}4h[4:7]/C,{2}6h[4:1],5h[4:1],
{8}2hb[4:1]/6,,5h[4:1],,4h[4:1],,6,6,4,5,5,4,3v4[4:1],,5,,
6hb[4:1],,4h[4:1],,5h[4:1],,3,3,5,4,4,5,6v5[4:1],,4,,
2hb[4:1],,4h[4:1],,3h[4:1],,5,5,3,4,4,3,2v4[4:1],,5,,
{4}6p2^8[4:2]b,5,4,3,3h[4:3]/7h[2:1],,,8-4[8:1]b,

8b,{16}35,,,2,{8}4^7[8:1],4,1-5[8:1],1,8-3[8:1]b,,{16}83,,,4,{8}5v8[8:1],5,2,2,
1-6-8[4:1],1,4,4,5,5,15,15,24,24,45,45,
5h[16:1]/7h[16:1],5h[16:1]/7h[16:1],7h[16:1]/6h[16:1],7h[16:1]/6h[16:1],
6/7^4[8:1],,71,2-6[8:1],,{16}12,8,{8}7-3[8:1],,47,2h[4:1],,5,36,36,1/8h[4:1],,
{16}1,2,3,4,57,4,3,2,18,7,6,5,42,5,6,7,18,2,3,4,57,4,3,2,18,7,6,5,43,5,6,7,
{8}1/8-3[8:1],,1,2,4-7[8:1],2,1,,1v6[8:1],8,1,7,5v2[8:1],6,5,,
8/1-6[8:1],,8,7,5-2[8:1],7,8,,8v3[8:1],1,8,2,4v7[8:1],3,4,,
8h[4:1],,6,6h[4:1],,4,4h[4:1],,2,2h[4:1],,1,1,,37,,
{16}6,4,6,4,6,,2,5,2,5,2,,{16}7-5-8-4-1-3[4:3]b,8,7,8,{1}7b,

{8}1-5[8:1]/4,1,7,7h[4:1],,4,4,2h[4:1]/6,,8,37,37,{16}6,6,4,4,5,5,3,3,
{8}4^7[8:1],1,2,2h[4:1],,8,8,5/7h[4:1],,1,26,26,{16}3,3,5,5,4,4,6,,
{16}3b/7b,,2,1,2,,38,,2,1,2,,37,,2,1,2,,36,,1,8,1,8,1,2,3,4,56,7,8,1,
3,4,3,4,3h[8:1],,7,5,6,5,7h[8:1],,2,4,3,4,2h[8:1],,5,3,5,3,5,3,4,4,5,3,4,4,5,3,
{8}6b-8[8:1],4-6[8:1],6,4,{16}1,2,3,4,58,1,2,3,{8}7-5[8:1],5-1[8:1],7,2,{16}2,3,4,5,62,1,8,7,
{8}3b-1[8:1],5-3[8:1],3,5,{16}8,7,6,5,41,8,7,6,{8}2-4[8:1],4-8[8:1],2,7,{16}7,6,5,4,38,1,2,3,
4/8b,,6,5,6,,15,,3,4,2,,56,,7,8,7h[8:1],,2,8,2,8,2,8,1,1,2,8,1,1,2,8,3,7,3,7,4,6,4,6,3,5,3,5,2,6,2,6,
{8}1h[16:1],2/8h[16:1],3h[16:1]/7,4/6h[16:1],8h[16:1],7/1h[16:1],6h[16:1]/2,5/3h[16:1],
{1}4b-1^2-7^8-5^6-3^4[2:7]/6bh[4:15],,,,

{8}6,6,5/7h[8:3],,,5,46,,3,3,2h[8:3]/4,,,4,35,,6,6,4/7h[8:3],,,8,{4}8z4[4:2],,,,35,
{8}6,6,5,7h[4:1],,{16}4,6,4,6,4,,{8}35,3,4,2h[4:1],,{16}5,3,5,3,5,,
{8}46,6,5,7h[4:1],,{16}5,6,4,6,4,,{8}35,3,4,2h[4:1],,{16}4,3,5,3,5,,
{8}46,4h[16:1]/6h[8:1],,35,3h[8:1]/5h[16:1],,46,4h[16:1]/6h[8:1],,45,4h[16:1]/5h[8:1],,
4h[8:1]/6h[16:1],,3h[8:1]/7h[16:1],,28,2,34,2,17,7,65,4,3b/5b,35,26,26,17,17,{16}8,2,8,2,

{8}1b^6[8:1],2,3,4^1[8:1],5,6,7^4[8:1],8,1,2^7[8:1],3,4,5h[16:1],5h[16:1],
(240)
5b^8[8:1],4,3,2^5[8:1],1,8,7^2[8:1],6,5,4^7[8:1],3,2,1b,,
(245)
2b-7[8:1],3,4,5-2[8:1],6,7,8-5[8:1],1,2,3-8[8:1],4,5,6h[16:1],6h[16:1],
(250)
6b-1[8:1],5,4,3-6[8:1],2,1,8-3[8:1],7,6,5-8[8:1],4,3,2b,,
(260)
6b^5-3[8:1],7,8,1^8-6[8:1],2,3,4^3-1[8:1],5,6,7^6-4[8:1],8,1,2h[16:1],2h[16:1],
(265)
2b^3-5[8:1],1,8,7^8-2[8:1],6,5,4^5-7[8:1],3,2,1,8,7,{4}1/6bh[4:1],
(290)
{16}8b,1,2,3,8,1,2,3,8,1,2,3,8,1,2,3,
(295)
8b/4x,7,6,5,8,7,6,5,8,7,6,5,8,7,6,5,
(310)
{20}8b/4x,1,2,3,4,8,1,2,3,4,8,1,2,3,4,8,1,2,3,4,
(315)
8b/5x,7,6,5,4,8,7,6,5,4,8,7,6,5,4,8,7,6,5,4,
(339)
{1}3^2-5^4-7^6-1^8-3[1:7]/7-4^5-2^3-8^1-6^7[1:7],,,,,,,,E

Re:MASTER


  • 追加しました。修正等ありましたらよろしくお願いします。 -- けもがみ (2023-12-11 19:26:43)
  • 曲の長さが合わないのですが、筐体版の尺のmp3ってどこで入手すればいいでしょうか? -- しろ (2023-12-11 20:37:07)
  • ↑現時点ではまだ筐体版の尺がないので、自分で編集して尺を調整するか、外部出力の動画をmp3に変換するとよいと思います。 -- けもがみ (2023-12-12 18:02:58)
  • 12分音符→16分音符への修正、EXTAPの追加、BPMの調整をしました。 -- けもがみ (2023-12-12 18:04:53)
  • EXPERT譜面を追加しました。修正等ありましたらよろしくお願いします。 -- Sugar (2026-03-04 22:56:22)
名前:
コメント:

タグ:

+ タグ編集
  • タグ:
最終更新:2026年03月04日 22:56