BASIC
ADVANCED
EXPERT
MASTER
(210)
{4}8^6v4[4:1]b,,,{16},{32}1hx[1280:1],B1,,,,,7hx[1280:1],B7,,,,,
2hx[1280:1],B2,,,,,6hx[1280:1],B6,,,,,3hx[1280:1],B3,,,,,
{8}5h[4:1],,4,{4}5,5,5,5,5-1[4:1],5h[4:1],{8},2h[4:1]/8,,,{4}2,2,2,2,2-6[4:1],2h[4:1],
{8},7h[4:1]/5,,,{4}7,7,7,7,7-3[4:1],7h[4:1],{8},2h[4:1]/4,,,{4}2,{8}45,6V48z4[8:6],3V51s5[8:5]b,{1},
{8}7hx[4:1]/1x,,5,4h[4:1]/7,,5,4,3h[4:1]/6,,4,3,2h[4:1]/5,,3,23,,
14,,4,5h[4:1]/2,,4,5,6h[4:1]/3,,5,6,7h[4:1]/4,,6,76,,
58,,4,3/7^5[8:1],,3,3,2/6^4[8:1],,2,2,1/5^3[8:1],,1,1,,
41,,5,6/2^4[8:1],,6,6,7,{16}4,3,2,1,E5,B5,B6,E7,1,2,3,4,E1,B8,B7,E7,
{4}3hx[4:1],4-6[8:1],2h[4:1]/4x,7-5[8:1],1h[4:1]/7x,4-6[8:1],2h[4:1]/4x,7-1[8:1],
7x/4h[4:1],2-8[8:1],2x/3h[4:1],7-5[8:1],7x/2h[4:1],4-6[8:1],1h[4:1]/4x,7h[4:1],
{12}8x,7,6,7,6,7,6,7,6,7,6,7,6,7,6,7,6,7,6,7,6,7,6,7,{32}8b,1x,2x,3x,4x,,,,
{8}6,65,,34,,12,{16}8,7,6,5,8,1,2,3,7,5,7,5,7,5,7,5,
{8}6b^1[4:1],,2,3,4,,1,1/5-2[8:1],,8,8,7,6h[4:1],8,2h[4:1],4,5-1[8:1],,6,6-8[8:1],,2,2,,
{32}1b/D3,A3,D4,,,,,,{8}8,{32}8b/C,B5,A5,,,,,,{8}7,67,,
1-3[8:1],8,7,6-2[8:1],,5,4,3,,32,,1,1/8-4[8:1],,78,,3-1[8:1],4,5,6-1[8:1],,2,2h[4:1],,
{12}1x,2,3,2,3,2,3,2,3,2,3,2,{32}1b,8x,7x,6x,5x,,,,
{8}3,2,1,,6,1/6h[8:3],2-4[8:1],1,2,7,8h[4:1],,4h[4:1],,
7-3[8:1],8,1,2-6[8:1],,4,5<1[4:1],,1,2,3,4,{2}5-2[8:1]/1-6[8:1],
{16}7x,1,7,1,6,1,6,1,5,1,5,1,4,1,4,1,5,2,5,2,6,3,6,3,7,4,7,4,8-4[8:1],5,8,5,{4}8x,
{16}3x,5,3,5,3,5,3,5,3,5,3,5,{32}2b,1,8,7,6,5,4,3,2pp4-2^1b[8:3],1,8,7,6,5,4,3,{2}2x,
{8}5x/8x,,3,3/E6,,1,1,1/E4,,7,7/B5,,2/B4,,8,71,,2/E6,,7,7,7/E4,,1,
{32}2b/E7,B6,B5,,,,,,{8}1,{32}8b/E3,B3,B4,,,,,,{8}7,7,,
56,,6,6/E4,,8,8,8/E6,,2,2/B4,,7/B5,,1,28,,7/E4,,2,2,2/E6,,8,
{16}4,3,2,1,E5,B5,B6,E7,1,2,3,4,E1,B8,B7,E7,
{4}2,1-5[8:1],8/1x,8-4[8:1],7/8x,7-3[8:1],6/7x,6-2[8:1],5/6x,
5-1[8:1],4/5x,4-8[8:1],3/4x,3-7[8:1],2/3x,2-6[8:1],1/2x,
{8}8,8V27[4:1],,3,4,5^2[4:1],,1,1,,{2}1x/8xz4[4:1],{8}2,2-6-4[4:1],,1,8,7-3[8:1],,8,1,1,4,4,
{16}3,5,3,5,3,5,3s7V16[8:5]b,,,{2},,{32}8hx[1280:1],E8,,,,,2hx[1280:1],E3,,,,,
7hx[1280:1],E7,,,,,3hx[1280:1],E4,,,,,5hx[1280:1],E6,B6,B7,,,
{16}1,1,1,1,1,1,1,1,1,1,1,1,1,1,1,1,
{32}2bx,3,4,5,2bx,1,8,7,2bx,3,4,5,2bx,1,8,7,2bx-6[8:1]b,3,4,5,2bx,1,8,7,2bx,B2,C,B6,{8},
8hb[4:1],5,5,7h[4:1],4,4,6h[4:1],3,3,5<1[8:3],2,2,1,2,3,4,15,8,7-3[8:1]/3,7,1-5[8:1],1,8,8,
{32}2b/D8,A7,D7,,,,,,{8}5,{32}5b/D4,A3,D3,,,,,,{8}8,1,2,
3hx[4:1],7,7,2h[4:1],6,6,1h[4:1],5,5,8>4[8:3],4,4,5,6,7,8,15,4,7/3-7[8:1],3,5-1[8:1],5,2h[4:1],,
{12}1x,2,3,2,3,2,3,2,3,2,3,2,
{16}8bx,7,6,5,4,3,2,1,8x/B3/E4,7,6,5,4,3,2,1,8x/C,7,6,5,4,3,2,1,8x/B3/E4,7,6,5,4,3,2,1,
8x/B8/B1,7,6,5,4,3,2,1,8x/C,7,6,5,4,3,2,1,8x/B3/E4,7,6,5,4,3,2,1,8x/C,7,6,5,4,3,2,1,{8}8bx/E5f,,
25,3,4,25,6,7,{32}5hb[2:1]/A8,D8,A7,D7,A6,D6,,D5,A4,D4,A3,D3,A2,,,,
{8}8,8,,6,6/B3/B4/E4,,2,2/B6/B5/E6,,8,8,8/B2/B1/E2,,3,3s7[4:1]/B6/B5/E6,,8-4[8:1],8,,,
3hx[4:1],4,6,2h[4:1],4,6,1h[4:1],4,6,8h[4:1],4,6,1>5[4:1],4,5-1[8:1],6,
7-3[8:1],7,2-5[8:1],2,8-4[8:1],8,1,1,{32}2b/D6,A6,D7,,,,,,{8}8,{32}8b/A4,D4,A3,,,,,,{8}1,28,37,
6hx[4:1],5,3,7h[4:1],5,3,8h[4:1],5,3,1h[4:1],5,3,8<4[4:1],5,4-8[8:1],3,
2-6[8:1],2,7-4[8:1],7,1-5[8:1],1,8,8,4^7[8:1],3,2,1,8^3[8:1],7,6,5,4,,
5-7[8:1]/3,3,3/5x,,4-6[8:1]/2,2,2/4x,,3-5[8:1]/1,1,1/3x,,2-4[8:1]/8,8,8/2x,,
1-3[8:1]/7,7,7/1x,,8-2[8:1]/6,6,6/8x,,7-1[8:1]/5,5,5/7x,,6<3[8:3]/4,4,4/6x,,
5,5-2[8:1],,1,8,7,{32}6hb[2:1]/A1,D1,A8,D8,A7,D7,,D6,A5,D5,A4,D4,A3,,,,
{8}1,1,,3,3/B7/B8/E8,,6,6/B3/B4/E4,,2,2,2/B6/B5/E6,,8,17,26,{16}3,4,3,4,3,4,3,4,
{8}2bhx[4:1],,7,7q5<1[16:9],,5,{2}5h[2:1],{8}2<5[8:3],,5,4,3,,
1h[4:1],,3,3<7[4:1],,2,2,,{32}8b/D2,A2,D3,,,,,,{8}7,{32}7b/A5,D5,A4,,,,,,{8}2,1,8,
3/7h[4:1],,2,2p4>8[16:9],,4,{2}4h[2:1],{8}7>4[8:3],,4,5,6,,8h[4:1],,5,5-1[8:1],,7,7h[4:1],,
{12}8x,7,6,7,6,7,6,7,6,7,6,7,{32}8b,1x,2x,3x,4hx[4:1],,,,{8}7,7,,6<4[8:3],{4}8h[4:1],,1,
{8}5,6,7,8,2h[8:3],,3,7h[8:3],,6p5[8:3],{2}1h[4:1],{8}2h[4:1],,{4}4,2-6[8:1]/3-8[8:1],2x/3x,
{8}7,57,,3,35,,{32}6hb[2:1]/A1,D1,A8,D8,A7,D7,,D6,A5,D5,A4,D4,,,,,
{8}1,2,8,7,6/B2,,1,1/B7,,8,8,8/E4,,1,1/E6,,8/E5,,7,6,
5hx[4:1]/3x,2,2,6h[4:1]/1,2^4[8:1],,7h[4:1],,,8h[4:1]/5,4,4,1h[4:1]/3,4^6[8:1],,2h[4:1],,,
3h[4:1]/7,6,6,4h[4:1]/5,6^8[8:1],,5h[4:1],,,6h[4:1]/2,1,1,7h[4:1]/8,1^3[8:1],,8h[4:1],,,
1h[4:1]/5,4,4,2h[4:1]/3,4^6[8:1],,3h[4:1],,,4h[4:1]/8,7,7,5h[4:1]/6,7^1[8:1],,6h[4:1],,,
7h[4:1]/3,2,2,8h[4:1]/1,{4}2pp4[8:1],1,38,
{32}7h,B7,,,{8}4,4,{32}2h,B2,,,{8}4,4,{32}8h,B8,,,{8}4,4,{32}1h,B1,,,{8}4,4,8,6,4,2,
{32}3h,B3,,,{8}1,1,{32}6h,B6,,,{8}1,1,{32}4h,B4,,,{8}1,1,{32}5h,B5,,,{8}1,1,{16}2-7[8:1]/8-5[8:1],37,46,,{4},
{16}6x,8,6,8,6,,3x,5,3,5,3,,1x,4,1,4,1,,3x,8,3,8,3,,2x/1x,8,7,6,5x/8x,1,2,3,
7bx,5,7,5,7,5,8,5,8,5,8,5,1,5,1,5,1,5,2,5,2,5,2,5,{32}3b,2,1,8,7,6,5,4,
{4}3-7[8:1]b,{16}3bxs7^1z5[4:11]/1bhx[1:4],{1}Cf,,,,,,,,E
Re:MASTER
- 追加しました。修正等ありましたらよろしくお願いします。 -- けもがみ (2023-12-15 09:38:55)
最終更新:2026年04月08日 22:50