アットウィキロゴ

[宴]In Chaos

BPM 属性 COMMENT
140 蔵 チャンさんは今日もアクセル全開

属性:蔵

(140)
{4}1,2,{8},8b,8b,,2,,,2,,,2,,,2,,7,,7,2,,2,,,2,,,{2}2,{16},,,1,2,1,2,1,{32}2,3,4,5,6,7,8,1,

{16}2-5[8:1],2,18,,12,,7,7,8,8,7/1-4[8:1],,78,,18,,6-1[8:1],6,45,,4,,3,2,3,2,31,,18,7,36,4,
7-4[8:1],7,81,,87,,2,2,1,1,2/8-5[8:1],,21,,81,,3-8[8:1],3,54,,5,,6,7,6<2[8:1],7,68,,{32}2,3,4,5,6,,,,
{16}7-4[8:1],7,81,,87,,2,2,1,1,2/8-5[8:1],,21,,81,,3-8[8:1],3,54,,5,,6,7,6,7,68,,81,2,63,5,
2-5[8:1],2,18,,12,,7,7,8,8,7/1-4[8:1],,78,,12,,8V26[8:1],8,6,6,78,,1V73[8:1],1,3<7[8:1],3,21,,{32}7,8,1,2,3,,,,

{8}1,46,8,35,{16}1-6[16:1],6-1[16:1],{8}78,1,,8,53,1,64,{16}8-3[16:1],3-8[16:1],{8}21,8,,,
{16}1,7,18,1,8,1,7-2[16:1],2-7[16:1],{8}18,7,,1>5[8:1]/2>6[8:1],5<1[8:1]/6<2[8:1],12,,,{32}1,8,1,8,2,3,4,,7,6,5,,
{8}1,46,8,3v8[8:1]/5v8[8:1],8,35,1,35,8,53,1,6v1[8:1]/4v1[8:1],1,64,8,64,4,17,5,2v5[8:1]/8v5[8:1],5,28,4,28,
2-5[8:1]/7,{16}8,8,2/7-4[8:1],,1,1,27,,8b,,{32}8b/4b,73,62,51,48,,,,

{4}5>1[8:1]*V31[8:1],5<1[8:1]*V71[8:1],5w1[8:1],5,3>7[8:1]*V17[8:1],3<7[8:1]*V57[8:1],3w7[8:1],3,
7<3[8:1]*V53[8:1],7>3[8:1]*V13[8:1],7w3[8:1],7,{16}15,,,26,,,37,,48,,{32}84,73,62,51,{4}48,

{16}2,1,2,1,38,,1^3[8:1],8,{8}7/1>5[8:1],1>7[8:1],1,1,{16}8,1,8,1,82,,6^8[8:1],3,{8}3^8[8:1]/6,6<4[8:1],3,6,
{16}5,6,5,6,57,,7^2[8:1],2,{8}2p6[8:1]/6p2[8:1],7,6,,{16}3,4,3,4,35,,{32}1,2,3,4,5,6,7,8,1,2,3,4,5,6,7,8,1,2,3,4,
{16}7,8,7,8,71,,8^6[8:1],1,{8}2/8<4[8:1],8<2[8:1],8,8,{16}1,8,1,8,17,,8<4[8:1]*V64[8:1],4,{8}8/4>8[8:1]*V28[8:1],8,,,
{16}4,3,4,3,42,,2^7[8:1],7,{8}7q3[8:1]/3q7[8:1],2,3,,3^6[8:3],,3,8,,1,{32}26,15,84,73,62,,,,

{16}7-3[8:1],8,7,8,7,,8,4,1,5,{8}2,2b/7b,1b/8b,{16}2-6[8:1],1,2,1,2,,1,5,8,4,7,,1,1,8,8,
{16}7-3[8:1],8,7,8,7,,8,4,1,5,2,,8,8,1,1,7-3[8:1],7,8,8,71,,4p7[8:1],4,5,5,46,,8,8,1,1,
7,2,6,1,5,8,6,1,7^4[8:1],2,7,2,1,1,2,3,8,3,7,2,6,1,7,2,8^5[8:1],3,8,3,82,,3,,
7,2,6,1,5,8,6,1,7^4[8:1],2,7,2,1,1,2,3,7-3[8:1],8,8,8,71,,4,5,5<1[8:1],5,46,,{32}1,2,3,4,5,,,,

{16}7,2,1^4[8:1],6,8,5,1<5[8:1],,8,2w6[8:1],1,,2,2,,,1,6,8^3[8:1],5,7,4,8<4[8:1],,7,1w5[8:1],8,,1,1,,,
3,8,2^5[8:1],7,1,6,2<6[8:1],,1,3w7[8:1],2,,3,3,,,1,1,28,,8,71,,1,{32}8,7,6,5,1,8,7,6,1,5,1,5,2,6,2,6,
{16}2,7,8^5[8:1],3,1,4,8>4[8:1],,1,7w3[8:1],8,,7,7,,,8,3,1^6[8:1],4,2,5,1>5[8:1],,2,8w4[8:1],1,,8,8,,,
6,1,7^4[8:1],2,8,3,7>3[8:1],,8,6w2[8:1],7,,6,6,,,{16}48,,,15,,,{8}26,26,,{16}8,2,1-6[8:1],,

2,2-5[8:1],13,,1,28,,8,{32}8,1,2,3,8,1,2,3,7,3,7,3,8-5[8:1],4,8,4,{16}1,1-4[8:1],28,,8,17,,7,{32}7,8,1,2,7,8,1,2,6,2,6,2,7-4[8:1],3,7,3,
{16}8,8-3[8:1],17,,7,86,,6,{32}6,7,8,1,6,7,8,1,5-8[8:1],1,5,1,6,2,6,2,{16}5,,2,2,1-4[8:1],7,18,,1,,7,7,,{32}84,73,62,51,{16}48,
7,7-4[8:1],86,,8,71,,1,{32}1,8,7,6,1,8,7,6,3,8,2,7,1-4[8:1],6,8,5,{16}8,8-5[8:1],17,,1,82,,2,{32}2,1,8,7,2,1,8,7,4,1,3,8,2-5[8:1],7,1,6,
{16}1,1-6[8:1],28,,2,13,,3,{32}3,2,1,8,3,2,1,8,5,2,4,1,3,8,2,7,{16}1-5[8:1],,27,38,41,,1,,26,15,48,,{32}37,48,51,62,73,,,,

{8}2,,,2,,,2,,,2,,7,,7,{1}2,,,,E

  • 追加しました。修正等ありましたらよろしくお願いします。 -- けもがみ (2023-12-27 14:50:10)
名前:
コメント:

タグ:

+ タグ編集
  • タグ:
最終更新:2023年12月27日 14:50