アットウィキロゴ

[宴]タカハせ!名人マン

BPM 属性 COMMENT
150 狂 名人マンよくばりセット

属性:狂

(150)
{16}4,4,4,4,4,4,4,4,4,4,4,4,4,4,4,4,4,4,4,4,4,4,4,4,4,4,4,4,4,4,4,4,
4,4,4,4,4,4,4,4,4,4,4,4,4,4,4,4,4,4,4,4,4,4,4,4,4,4,4,4,4,4,4,4,
4,4,4,4,4,4,4,4,4,4,4,4,4,4,4,4,4,4,4,4,4,4,4,4,4,4,4,4,4,4,4,4,
4,4,4,4,4,4,4,4,4,4,4,4,4,4,4,4,4,4,4,4,4,4,4,4,4,4,4,4,4,4,4,4,
4,4,4,4,4,4,4,4,4,4,4,4,4,4,4,4,4,4,4,4,4,4,4,4,4,4,4,4,4,4,4,4,
4,4,4,4,4,4,4,4,4,4,4,4,4,4,4,4,4,4,4,4,4,4,4,4,4,4,4,4,4,4,4,4,
4,4,4,4,4,4,4,4,4,4,4,4,4,4,4,4,4,4,4,4,4,4,4,4,4,4,4,4,4,4,4,4,
4,4,4,4,4,4,4,4,4,4,4,4,4,4,4,4,4,4,4,4,4,4,4,4,4,4,4,4,4,4,4,4,
4,4,4,4,4,4,4,4,4,4,4,4,4,4,4,4,4,4,4,4,4,4,4,4,4,4,4,4,4,4,4,4,
4,4,4,4,4,4,4,4,4,4,4,4,4,4,4,4,4,4,4,4,4,4,4,4,4,4,4,4,4,4,4,4,
4,4,4,4,4,4,4,4,4,4,4,4,4,4,4,4,4,4,4,4,4,4,4,4,4,4,4,4,4,4,4,4,
4,4,4,4,4,4,4,4,4,4,4,4,4,4,4,4,4,4,4,4,4,4,4,4,4,4,4,4,4,4,4,4,
4,4,4,4,4,4,4,4,4,4,4,4,4,4,4,4,4,4,4,4,4,4,4,4,4,4,4,4,4,4,4,4,
4,4,4,4,4,4,4,4,4,4,4,4,{4},

7h[4:1],6h[4:1],5h[4:1],4h[4:1],2h[4:1],3h[4:1],4h[4:1],5h[4:1],
8h[4:1],7h[4:1],6h[4:1],5h[4:1],1h[4:1],2h[4:1],3h[4:1],4,
{2}8h[8:3]/3h[8:3],{8}45,45,,,{2}1h[8:3]/6h[8:3],{8}54,54,,,
{16}8h[1:2]/4h,4h,4h,4h,4h,4h,4h,4h,4h,4h,4h,4h,4h,4h,4h,4h,
4h,4h,4h,4h,4h,4h,4h,4h,4h,4h,4h,4h,4h,4h,4h,4h,{1}4bw8[4:1],,
{4}71,34,28,6/5>7[8:3],,,2/8h[2:21],,

{16}3,3,3,3,3,3,3,3,3,3,3,3,3,3,3,3,3,3,3,3,3,3,3,3,3,3,3,3,3,3,3,3,
3,3,3,3,3,3,3,3,3,3,3,3,3,3,3,3,3,3,3,3,3,3,3,3,3,3,3,3,3,3,3,3,
3,3,3,3,3,3,3,3,3,3,3,3,3,3,3,3,3,3,3,3,3,3,3,3,3,3,3,3,3,3,3,3,
3,3,3,3,3,3,3,3,3,3,3,3,3,3,3,3,3,3,3,3,3,3,3,3,3,3,3,3,3,3,3,3,
3,3,3,3,3,3,3,3,3,3,3,3,3,3,3,3,3,3,3,3,3,3,3,3,3,3,3,3,3,3,3,3,{1}3,,,,,

{12}6h[4:1],,,4,,3,4,,,34,,,3h[4:1],,,5,,6,5,,3,,1,,6,,6,5,,5,4,,4,3,,3,2,,2,1,,1,8,1,8,1,,,
{12}3h[6:11]/4h[6:1],,,,,5h[6:1],,,,,6h[6:1],,,,,7h[6:1],,,,,8h[3:7],,,,
{24}4h,4h,4h,4h,4h,4h,4h,4h,4h,4h,4h,4h,4h,4h,4h,4h,4h,4h,4h,4h,4h,4h,4h,4h,
4h,4h,4h,4h,4h,4h,4h,4h,4h,4h,4h,4h,4h,4h,4h,4h,4h,4h,4h,4h,4h,4h,4h,4h,{1}4h,
{4},27,27,,28,65,71,3/4<2[8:3],,,6/1h[4:33],,

{24}6h,6h,6h,6h,6h,6h,6h,6h,6h,6h,6h,6h,6h,6h,6h,6h,6h,6h,6h,6h,6h,6h,6h,6h,
6h,6h,6h,6h,6h,6h,6h,6h,6h,6h,6h,6h,6h,6h,6h,6h,6h,6h,6h,6h,6h,6h,6h,6h,
6h,6h,6h,6h,6h,6h,6h,6h,6h,6h,6h,6h,6h,6h,6h,6h,6h,6h,6h,6h,6h,6h,6h,6h,
6h,6h,6h,6h,6h,6h,6h,6h,6h,6h,6h,6h,6h,6h,6h,6h,6h,6h,6h,6h,6h,6h,6h,6h,
6h,6h,6h,6h,6h,6h,6h,6h,6h,6h,6h,6h,6h,6h,6h,6h,6h,6h,6h,6h,6h,6h,6h,6h,
6h,6h,6h,6h,6h,6h,6h,6h,6h,6h,6h,6h,6h,6h,6h,6h,6h,6h,6h,6h,6h,6h,6h,6h,
6h,6h,6h,6h,6h,6h,6h,6h,6h,6h,6h,6h,6h,6h,6h,6h,6h,6h,6h,6h,6h,6h,6h,6h,
6h,6h,6h,6h,6h,6h,6h,6h,6h,6h,6h,6h,6h,6h,6h,6h,6h,6h,{4}6h,

{24}8h[1:11]/3h,3h,3h,3h,3h,3h,3h,3h,3h,3h,3h,3h,3h,3h,3h,3h,3h,3h,3h,3h,3h,3h,3h,3h,
3h,3h,3h,3h,3h,3h,3h,3h,3h,3h,3h,3h,3h,3h,3h,3h,3h,3h,3h,3h,3h,3h,3h,3h,
3h,3h,3h,3h,3h,3h,3h,3h,3h,3h,3h,3h,3h,3h,3h,3h,3h,3h,3h,3h,3h,3h,3h,3h,
3h,3h,3h,3h,3h,3h,3h,3h,3h,3h,3h,3h,3h,3h,3h,3h,3h,3h,3h,3h,3h,3h,3h,3h,
3h,3h,3h,3h,3h,3h,3h,3h,3h,3h,3h,3h,3h,3h,3h,3h,3h,3h,3h,3h,3h,3h,3h,3h,
3h,3h,3h,3h,3h,3h,3h,3h,3h,3h,3h,3h,3h,3h,3h,3h,3h,3h,3h,3h,3h,3h,3h,3h,
3h,3h,3h,3h,3h,3h,3h,3h,3h,3h,3h,3h,3h,3h,3h,3h,3h,3h,3h,3h,3h,3h,3h,3h,
3h,3h,3h,3h,3h,3h,3h,3h,3h,3h,3h,3h,3h,3h,3h,3h,3h,3h,3h,3h,3h,3h,3h,3h,
3h,3h,3h,3h,3h,3h,3h,3h,3h,3h,3h,3h,3h,3h,3h,3h,3h,3h,3h,3h,3h,3h,3h,3h,
3h,3h,3h,3h,3h,3h,3h,3h,3h,3h,3h,3h,3h,3h,3h,3h,3h,3h,3h,3h,3h,3h,3h,3h,
3h,3h,3h,3h,3h,3h,3h,3h,3h,3h,3h,3h,3h,3h,3h,3h,3h,3h,3h,3h,3h,3h,3h,3h,{1}3h,

{24}16,16,16,16,16,16,16,16,16,16,16,16,16,16,16,16,16,16,{1}1b/6b,,,,

  • 追加しました。修正等ありましたらよろしくお願いします。 -- けもがみ (2023-12-27 17:17:43)
名前:
コメント:

タグ:

+ タグ編集
  • タグ:
最終更新:2023年12月27日 17:17