アットウィキロゴ

アンダーキッズ

アーティスト ツユ

BPM BASIC ADVANCED EXPERT MASTER
225 5 7 10+ 13

EXPERT MASTER
譜面制作者 翠楼屋 Luxizhel

BASIC


ADVANCED


EXPERT

(225)
{4}4b/5b,6,7,7,78,1,2,2,34,34,56,56,37,,2,2,3,4,6,57,7,6,4,35,2,3,5,46,7,7,18,18,
{2}2bhx[4:1]/7bhx[4:1],3h[4:1]/6h[4:1],4h[4:1]/5h[4:1],
3h[4:1]/4h[4:1],4h[4:1]/5h[4:1],5h[4:1]/6h[4:1],
{4}56,56,4b/7b,,3,24,5,46,2,8,17,17,26,5,4,3<6[2:1],,,,,
{2}7hx[1:1],,5h[1:1],,4h[2:3],,3h[2:1],
{8},,,2x/5x,,,
{4}1x,1x,28,37,46,3b/7b,,
{2}2h[1:1],4,6h[1:1],5,3h[1:1],4,7h[1:1],5x,2h[1:1],B4,8h[1:1],B5,2h[1:1],3,5h[1:1],
C,2h[2:1],3h[2:1],4h[2:1],5h[2:1],6h[2:1],7h[2:1],8h[2:1],1x,
{4}78,6,5,45,34,2,1,18,27,7,5,46,35,3,24,24,2-6[4:1],,
7-3[4:1],,1,1,8,7,7-3[4:1],,2-6[4:1],,8,8,17,,2,3,45,56,7,6,45,45,3x/4x,3x/4x,5x/6x,5x/6x,45,36,2x/7x,,
4b/6b,2,35,7,46,1,35,8,57,57,34,34,2b/6b,,3x/7x,3x/7x,6,57,2h[4:1],1,7,78,2h[4:1],1,34,25,56,47,34,34,45,56,
{2}4xh[4:1]/7xh[4:1],4h[4:1]/7h[4:1],2h[4:1]/5h[4:1],2h[4:1]/5h[4:1],7h[4:1]/8h[4:1],1h[4:1]/2h[4:1],
{4}12,12,38,47,7h[4:1],5h[4:1],4h[4:1],3,3,24,1,2>5[2:1]/8<5[2:1],,,,,4b/6b,,,,
1-5[4:1],,7-3[4:1],,2-6[4:1],,8,8,7h[4:1],5[4:1],6h[4:1],5,3h[4:1],4h[4:1],2h[4:1]
,1,8,17,2,35,6,57,3,24,1-5[4:1],,8-4[4:1],,3,3,2b/5b,,56,56,7,8-4[4:1]/7-3[4:1],,,2x/5x,,34,34,2,1-5[4:1]/2-6[4:1],,,4xb/7xb,6h[4:1],5,2h[4:1],4,7,7,78,78,16,2h[4:1],4,6h[4:1],5,3,12,6,78,6,35,2h[2:1]/4,4,4h[2:1],,,,B3/B7/Cfh[1:1],,,,,,,,
2h[4:1],1,7,78,3h[4:1],4,6,56,4x/7x,4x/7x,3x/5x,3x/5x,2x/6x,,
28,28,3h[4:1],5h[4:1],4h[4:1],6h[4:1],2h[4:1],4h[4:1],5h[4:1],7h[4:1],8,8,17,26,3,4,25,,
{2}7h[4:1]/8h[4:1],7h[4:1]/8h[4:1],5h[4:1]/6h[4:1],4h[4:1]/7h[4:1],1h[4:1]/2h[4:1],1h[4:1]/2h[4:1],
{4}12,12,38,,7h[4:1],5,3,24,6h[4:1],5,46,8/3>6[2:1],,,,,4x/5x,,,,
8-4[4:1],,2-6[4:1],,7-3[4:1],,2,2,2h[4:1],1h[4:1],8h[4:1],7,6h[4:1],8h[4:1],1h[4:1],3,3,4,56,56,7,8,12,12,1/2-6[4:1],,8-4[4:1],,2,2,2b/8b,,12,12,3,3-7[4:1]/4-8[4:1],,,1x/6x,,78,78,6,5-1[4:1]/6-2[4:1],,,3xb/8xb,,
7h[4:1],5,2h[4:1],1,8,17,26,26,3h[4:1],4,7h[4:1],5,2,12,38,47,56,56,34,34,2h[1:1]/5,,,,8<5p4>1b[4:11],,,,,,,,,,,,,,1x/8x,,
5b/7b,1,24,8,46,1,35,8,46,12,35,78,2x/6x,,1b/8b,,34,34,12,78,56,56,78,12,34,18,56,18,2b/6b,,
46,35,1b,46,8,35,18,57,18,24,78,56,34,1qq6[2:1]/2pp5[2:1],,,,,
38,38,56,
{8}7,7,
{4}8,16,34,
{8}2,2,
{4}1,38,47,56,4,3,1b/2b,12,3h[4:1],4h[4:1],5h[4:1],6,56,47,34,25,2h[4:1],4h[4:1],5h[4:1],7,78,78,1b/6b,,
7h[4:1],5h[4:1],4h[4:1],3,12,38,78,16,3b/4b,1b/2b,5b/6b,7b/8b,4b/5b,4b/5b,B1/B2/B7/B8/E1/E2/E8/Cf,E

MASTER

(225)
{4}4h[4:1]/5h[4:1],,2xb-5[8:1]/7xb-4[8:1],27,3x/6x,
{8}7,7,
{4}6h[4:1],5h[4:1],4,
{8}3,3,
{4}2b/4b,5b/7b,1b/8b,2b/4b,7h[4:3]/5b,6,8,2,7-4[8:1],2-5[8:1],8<5[8:1],1>4[8:1],7-3[8:1],1-5[8:1],8-5[8:1],3,3-1[8:1]/5,4,6-8[8:1]/4,5,2-5[8:1]/7,6,17,28,
{2}3h[4:1]/4b<8[8:3],3h[4:1],6h[4:1]/5>1[8:3],6h[4:1],3h[4:1]/5<1[8:3],4h[4:1],6h[4:1]/4-2[8:1],
{8}1x,1x,
{4}2x/8x,1x-4[8:1],1x-6[8:1],1x>4[8:1],1x<6[8:1],1x-3[8:1],1x-7[8:1],1x-5[8:1],1x,
6,78,12,4/3>5[2:1],35,,A4,,
{2}4pp4[4:3]*qq4[4:3],,,3h[2:3]/5pp5qq4[4:5],,,,
{8}2b/4b,2b/4b,,34,,2,2,,18,,57,,45,,24,,1b/8b,1b/8b,,,
{2}3h[4:1]/5,3h[4:1]/E5,6h[4:1]/4,6h[4:1]/E5,3h[4:1]/5,3h[4:1]/A4,3h[4:1]/E5,
{8}34,34,,,
{2}6h[4:1]/4,6h[4:1]/E5,3h[4:1]/5,3h[4:1]/E5,6h[4:1]/4,6h[4:1]/A5,6h[4:1]/E5,
{8}46,46,,,
{2}2h[4:1]/5,2h[4:1]/E4,7h[4:1]/4,7h[4:1]/E6,2h[4:1]/5,2h[4:1]/A4,2h[4:1]/B3,
{8}18,18,,,
{4}2h[4:1],4h[4:1],5h[4:1],7h[4:1],2h[4:1],4[4:1],6h[4:1],8h[4:1],2,13,3>1[8:1]/4,5,6,57,8/7<5[8:1],1,24,34,12,28,34,37,25,18,
17,78,56,47,18,2/B6`B5,7/B3`B4,A1/A8`E2`E8,5,46,
{8}6,6-4[8:1],
{4}4
,3,35,
{8}2,2-5[8:1],
{4}6,6,5x/7x,
{8}8,8-4[8:1],
{4}2,1,15,37,,1-5[8:1]/8-4[8:1],18,36,
{8}2,2,
{4}4h[4:1],5h[4:1],7,
{8}8,8,
{4}1b/8b,2b/3b,4b/5b,6b/7b,8b/2bh[4:3],1,3,5,2-5[8:1],8-4[8:1],1-5[8:1],7-4[8:1],2-5[8:1],8-6[8:1],1-3[8:1],7x,5/6-1[8:1],3,4/3-8[8:1],6,4/5-1[8:1],2,38,12,
{2}3bh[4:1]/4V61b[4:1],2h[4:1],6h[4:1]/5V38[4:1],7h[4:1],2h[4:1]/6q4[4:1],1h[4:1],6h[4:1]/2-5[8:1],
{8}8,8,
{4}17,8x-5[8:1],8x-3[8:1],8x<5[8:1],8x>3[8:1],8x-6[8:1],8x-2[8:1],8x-4[8:1],8x,3,34,25,16,78,,C,,
3V51[4:1],5,6,37,E8,B6/E7,A4/A5/E5,A3/B3/D3/E3,1-5[8:1],7-4[8:1],2-5[8:1],8-4[8:1],2,3,24,38,2-5[8:1],7h[4:1],
4-1[8:1],6h[4:1],8-3[8:1],5h[4:1],1q5[8:1],7,7-4[8:1],2h[4:1],5-8[8:1],3h[4:1],1-6[8:1],4h[4:1],5-8[8:1],2b,5x/7x,18,24,45,7/5-7p2-4[2:1],,,,
1x/3,35,57,17,3/1-3p6-8[2:1],,,,
18,5-7[8:1],2-4[8:1],6-8[8:1],3-8[8:1],5,6-1[8:1]/2-5[8:1],,4/8-6[8:1],4-2[8:1],7-5[8:1],3-1[8:1],6-1[8:1],2-4[8:1],
5-1[8:1],3,2v5[8:1]/8v5[8:1],,1v4[8:1]/7v4[8:1],,28,
{8}7,57,,2,4/2-7-3-6-4[1:1],,
{1},
{4},,1h[4:1]/8h[4:1],,8/7h[4:1],5,A8/B8,A6/B6,1/2h[4:1],4,A1/B1,A3/B3,28,16,38,15,
{8}2,1,8,7xh[8:3],,6,6,,
7,7,5,5,4,4,2h[4:1],,8qq5[2:1],,2,2,,4,4,,
{4}3/5x,17,46,28,
{8}1,1,7,7,2,2,
{4}8h[4:1],
{2}1-4V62[4:3],7,8qq3[4:3],2,1qq6[4:3],6,
{4}7-4[4:1],3,2,24,5h[4:1]/6,7,
{8}34,4,
{4}2,5h[4:1]/6,8,
{8}34,4,
{4}1,
{16}E5,E6,E7,E8,E1,E2,E3,E4,E5,E6,E7,E8,E1,E2,E3,E4,
{1}E5/Ch[2:1],
{4}2-5V38[2:1],7,6,5,A1/A2/D2/E2,A3/A4/E4,A6/E6,A7,8-4[8:1],2-5[8:1],7-4[8:1],1-5[8:1],7,6,57,16,8xb-6[8:1],3h[4:1],5v8[8:1],2h[4:1],7v4[8:1],3h[4:1],5-7[8:1],1x,1-3[8:1],6h[4:1],4v1[8:1],7h[4:1],2v5[8:1],6h[4:1],4-2[8:1],7,68,35,28,46,5/7s3[4:1],3s7[4:1],,,
28,35,68,13,4/2z6[4:1],6z2[4:1],,,
4x/5x,8-6[8:1],4-1[8:1],8-5[8:1],2-5[8:1],8,3-8[8:1]/7-4[8:1],,
1x-3[8:1],5-7[8:1],2-4[8:1],6-8[8:1],2-5[8:1],7-4[8:1],1-4[8:1],8,7h[4:1],6h[4:1],5h[4:1],4h[4:1],3>6[2:1],
{8}4,4,,5,5,,
{12}1x,2x,3x,7x,6x,5x,1x,2x,3x,7x,6x,5x,2x,3x,4x,8x,7x,6x,2x,3x,4x,8x,7x,6x,3x,2x,1x,7x,6x,5x,3x,2x,1x,7x,6x,5x,3x,2x,1x,8x,7x,6x,5x/4x,,,
{4}3x/6x,
1-6[8:1]/2-5[8:1],1b/2b,8-3[8:1]/7-4[8:1],8b/7b,26,
{8}7,7,5-1[8:1],5,
{4}8-4[8:1],3-7[8:1],
{8}6,6>3[8:1],,8w4[8:1],,8xb,
{4},1x/7x,B2/B3/B6/B7/E3/E7/Cf,,
12,56,1-6[8:1]/2-5[8:1],12,87,43,8-3[8:1]/7-4[8:1],87,1-5[8:1]/2-5[8:1],1b/2b,8-4[8:1]/7-4[8:1],8b/7b,1x/8x,2x/4x,57,
8q4[8:1]/2v5[8:1],2b/8b,1v4[8:1]/7qq5[8:1],1b/7b,1x-3[8:1]/8x-6[8:1],1xb-5[8:1]/8xb-4[8:1],1xb/8xb,2xb/7xb,
{8}3,3<6[8:1],,8,8h[4:1],,
{4}2-6[8:1],1-5[8:1],8-4[8:1],7-3[8:1],2,45,
{8}5xb/2xb-4[8:1],,6,7,8<5[8:1],,4,3,
{4}2-5[8:1],2/7-4[8:1],7/1-5[8:1],1,
{8}3xb/7xb-4[8:1],,8,1,2-5[8:1],,1,8,
{4}7x-4[8:1],7/1x-5[8:1],1x/8x-4[8:1],8x,
3,7/2v5[8:1],2/8-4[8:1],8,
{8}3,3,5,5,1,1,7,,
{4}7xV53b[8:1],3V17b[8:1],7,3,
{8}1,7,3,5,
{4}1w5[8:1],1b,
8,2/7xv4[8:1],7x/1x-5[8:1],1x/8,
{8}7,7,5,5,4,4,2,2,
6-8[8:1],6,3-1[8:1],3,5-7[8:1],5,2-5[8:1],2,7x-4[8:1],7x,2,2,
{2}1V35v2[4:13]/8bV64v7[4:13],,,,,,,
{4},1x-5[8:1],E

タグ:

+ タグ編集
  • タグ:
最終更新:2024年02月25日 12:38