BASIC
ADVANCED
EXPERT
(90){4}5<4[4:3]/4h[2:1],,,,5h[4:3],,4,4,4>5[4:3]/5h[2:1],,,,4h[8:5],,5h[8:1],4b/5b,{8}5/7,5/7,4/6,4/6,3/5,3/5,2/4,2/4,3/4,3/4,4/5,4/5,5/6,5/6,6/7,8b,{16}7,7,6,6,5,5,4,4,3,3,2,2,1,1,1,1,1,2,3,4,5,6,7,8,{4}1bh[2:1],8<1[4:3],{8},,,,,,,1x/8x,1/8h[2:1],,E6f/B5,,7h[2:1],8,B7/E7f,,5h[2:1],,E7f/B6,,4h[8:5],6,B5/B4/E5f,,2h[2:1],,E3/B3/B4/E4f,,1h[4:1],2,8bh[1:1],,Ch[4:3],,,,,,,8b/1b,
1h[8:1]/8-4[8:1],,2bv5[8:1],,7-3[8:1],,2b-5[8:1],,8-3[8:1],,1bv6[8:1],,7,7,8bw4[8:1],,,,2b-6-4-1[8:3]/6b,,7,7,8b<1[4:2],,,,,,8,1,8h[1:1]/1h[8:1],,{16}1,1,2,2,3,3,4,4,5,5,6,6,6,,5/7,,5h[8:1]/6,,4h[8:1],,3bh[4:1],,2,,4h[8:1],,5h[8:1],,6bh[16:7],,7,,5bxh[8:1],,,5h[16:3],6h[8:1],,,4h[16:3]/7h[4:1],,,,,5,5,4/6,,4h[8:1]/3,,5h[8:1],,6bh[4:1],,7,,5h[8:1],,4h[8:1],,3bh[16:7],,2,,4bxh[8:1],,,4h[16:3],3h[16:3],,,4h[16:3],3h[16:2],,,5h[8:1]/2h[8:1],,,1b/6bh[8:9],,{4}Chf[4:3],,,,1-5[8:1],8b-4[8:1],7-3[8:1],6b<3[4:3]b,,,,6<3[4:3],,,,5hx[4:9],4-2-8-6[2:1],,,,6<4[2:1],,,,{8}4,4,3/4,3/4,{16}2,2,1,1,8,8,7,7,{32}1,8,1,8,1,8,1,8,1,8,1,8,1,,,,{2}3bh[4:1]/6bh[4:1],
{16}2h[8:1]/4h[8:1],,,2h[8:1]/4h[8:1],,,1-7-3-5[4:1]/5,1/5,{2},{16}7h[8:1]/5h[8:1],,,7h[8:1]/5h[8:1],,,8-2-6-4[4:1]/4,8/4,{2},{16}2h[8:1]/4h[8:1],,,2h[8:1]/4h[8:1],,,1-7-3-5[4:1]/5,1/5,{2},{16}8h[8:1],,,1h[8:1]/7h[8:1],,,2/6,,4>6[4:1],,6,6,{4}6b,{8}E5,E4,E3,E2,E1,E8,E7,E6,E5/D5,E4/D4,E3/D3,E2/D2,E1/D1,E8/D8,E7/D7/Ch[8:1],,{8}7h[16:1]/8h[16:1],7h[16:1]/8h[16:1],5h[16:1]/6h[16:1],5h[16:1]/6h[16:1],3h[16:1]/4h[16:1],3h[16:1]/4h[16:1],1h[16:1]/2h[16:1],1h[16:1]/2h[16:1],3h[16:1]/8h[16:1],2h[16:1]/7h[16:1],1/6b<4[4:1],1/6,Cf,,,3b/7b,
{8}1/2,5/6,8/7,4/3,1/2,5/6,7-4-6-1[8:3]/8-3-5-2[8:3],7/8,{2},{8}1/2,3/4,5/6,7/8,1/2,5/6,4/3,8/7,1-5[8:1]b/2-6[8:1]b,1/2,,,{16}7h[8:1],4h[8:1],,6h[8:1],5h[8:1],,7bh[16:3],5bh[8:1],,,6,6,6,6,5x/7x,,{8}7/8,3/5,2/1,6/4,7/8,3/5,2-5-3-8[8:3]/1-6-4-7[8:3],1/2,{2},{8}8/7,6/5,4/3,2/5,7/8,2/3,5/7,3/4,8/1,4/5,A2/B2f/B6/A6,,
{4}4-8[8:1]/7,6bv1[8:1],3-7[8:1],6b-1[8:1],4-7[8:1],5bv2[8:1],{8}3,3,4bw8[8:1],,,,2b/6b-2-8-5[8:3],,3,3,4b>5[4:2],,,,,,4,5,4/6,8b,1h[8:1]/7h[8:1],,3b/4b,2h[4:2]/5,1,8,{16}4,4,5,,7h[4:1]/8,,1,,5,5,4,,1/2,,8,8,1/7-3[8:1],,1,,{4}8-4[8:1],1bv6[8:1],2-4-8[4:1],4b,7h[8:5],,8h[8:1],{8}3/6,3/6,{32}4,5,4,5,4,5,4,5,4,5,4,5,4,5,4,5,3,6,3,6,3,6,3,6,2,7,2,7,2,7,2,7,1,8,1,8,1,8,1,8,1,8,1,8,1,,,,4b/6b,,3b/7b,E
MASTER
(90)
{64}8b,17,26,35,4b,,,,{16},2^5[8:1]/6,26,,8,8h[16:3],,,6,5,7,6,53,,
24,3,4,5,,46,5,6,7h[16:7],,B6,B7,B8,B1,B2,B3,,
{16}5,,7^4[8:1]/3,73,,1,1h[16:3],,,3,4,5^2[8:1],46,,7,5,6,5,4,,
35,4,3,2x-6[32:1]/6x-2[32:1],,B4/A4,B8/A8,Cf,,,,
{8}1/7-1[16:1],B6,5-7[16:1],B4,3-5[16:1],B2,1-3[16:1],B8,
1/7-3[16:1],E4/E7,7/1-5[16:1],E3/E8,1/5w1[16:1],A3/A7,5,4b/6b,
{16}35,2,46,7,34,1,56,8,35,1,46,7,2-4[16:1],8-6[16:1],1-5[16:1],7,2,8,1,7,
{32}3,3,4,2,6,6,5,7,{48}3,2,1,8,7,6,3,2,1,8,7,6,3pp6>7pp2[16:13],2,1,8,7,6,3,2,1,8,7,6,
{4}3b/5bhx[8:7],,,{8},1b,
{16}24,3,4,3q5[4:1]/5,,6,5,3,8h[16:3],,,,68,7,5h[16:1],6,
{8}3-1[16:1]/4-8[16:1],1-5[16:1]/8,34,5<3[4:1],8^3[8:1],{16}4,5,6,7,{8}8z4[16:1]b,2h[16:1]/6h[16:1],,
{16}3h[16:1],7h[16:1],{8}5h[8:3],A3/B3,A7/B7,{16}1h[16:1],3,4,6h[16:5],{8}A8/B8,A4/B4,
{16}3^6[16:1],27,{8}18,36,4z8[16:1]b/5s1[16:1]b,2^4[16:1]/7^5[16:1],,2x/7x,
1h[16:1]/8h[16:1],2b/7bp4[16:3],{16}56,3,1h[16:3],,,,13,4h[8:1],3h[16:1],,
{8}6-8[16:1]/5-1[16:1],8-4[16:1]/1,65,4>6[4:1],1^6[8:1],{16}5,4,3,2,{8}1p5[16:1]*q5[16:1],7h[16:1]/3h[16:1],,
{16}8h[16:1],6h[16:1],{8}4h[8:3],A6/B6,A2/B2,{16}8h[16:1],7h[16:1],6h[16:1],5h[16:5],{8}A3/B3,A7/B7,
{16}1^3[16:1]*^6[16:1],8,27,,,,E5,C,18,18,27,36,
{32}4,5,4,5,2,4,3,4,1,8,1,8,5,6,5,7,{48}2,3,4,5,6,7,
{64}8z4[16:1]b,1,2,3,4,5,6,7,{96}8,1,2,3,4,5,6,7,8,1,2,3,{8}4b,
{32}26,,3,3,4,,25,,46,,7,7,8,,16,,35,,2,2,1>6[32:3],,56,,7,7,8,6,1b,,,,
{16}7-1[16:1],7,,5V74[32:3]/6,47,,34,2h[16:3]/5,,,4^1[16:1],3,56,7,8b/4,,
{32}73,,6,6,5,,74,,53,,2,2,1,,83,,64,,7,7,8V64[16:1],,43,,2,2,1,3,8,,,,
{16}2b-6[16:1]/3hb[16:3],,,1,2/5^8[16:1],,34,2^5[16:1],15,,7^2[16:1],26,,45,E5,,
{8}4-8[8:5],26,48,{32}5,6,7,,4-8[16:1]b,3,2,,{8}4h[8:1],Cf,,
{32}26,,3,3,4h[16:1],,1,,37,,6,6,5h[16:1],,8,,
71,2,3,4,52,3,4,5,6<4V28V64[4:7]/3,4,5,6,{8}7b/3b,{1}Ch[4:3],Chf[4:3],
{16}2,2h[8:1],,4,4h[16:5],,,,,3h[8:1],,5,4,4,35,,
7,7h[8:1],,5,5h[16:5],,{48}E6,E7,E8,E1,E2,E3,{16}E4,6h[8:1],,4,5,5,64,,
{8}1,1,1,1,{16}28,3,45,6,71,2,35,46,{32}5,7,4,6,3,5,2,4,
{48}1-5[16:1],2,3,8,7,6,3,4,2,6,5,7,{2}1bx/8b,
{16}3hb[8:1]/E5f,6,7,4hb[8:1]/E6f,6,7,5hb[4:1]/E7f,8v5^6-1[32:3],,,8,E2,E3,E4,E5,E6/D7,
3b,2/4h[8:1],,3b,6/5h[8:1],,7,8/1v4[16:1]*v6[16:1],2b/3,4/6b,,1b,,37,37,5,
6hb[8:1]/E5f,3,2,5hb[8:1]/E4f,3,2,4hb[4:1]/E3f,1v4^2-8[32:3],,,1,E8,E7,E6,E5,E4/D3,
6b,7/5h[8:1],,6b,3/4h[8:1],,2,1/8-4[16:1],7b/5,3b/4,,1b/8b,,56,3b/7b,,
28,,2/B6,B5,2,E8,2/E7,E6,3/E5,,3/D1,D8,3/D7,D6,3/D5,,
7/B1,B2,7/B3,B4,7,E2,7/E3,E4,6/E5,,6/D1,D2,6/D3,D4,6/D5f,,
7-4[16:1],4-8[16:1],8-3[16:1],3>5[16:3],7,,1x,1hx[8:1],,,
1,8,17,6,45,3,28,56,71,34,{32}6,6,5,7,3,3,4,2,{16}5bh[8:1],
{96}A3,D3,A2,D2,A1,D1,A8,D8,A7,D7,A6,D6,A5,D5,A4,D4,,,{16}3x/7x,3x/7x,2b/8b,,
{32}15,,3,4,2^5[16:1],,8-4[16:1],1,{16}8,46,2,8,{32}1,,3,4,2-8[16:1],,7-3[16:1],8,{16}6,35,2,7,
{32}1,2,3,4,5h[8:1]/6v1[16:1],7,8,1,2,3,4,5,{8}2b/6x,{32}3,3,4,2,6,6,5,7,1-5[16:1],8,2,7,3,6,4,,
15,,7,8,7,,15,,2,4,3,5,4,,56,,48,7,6,5,47,6,5,4,{4}3hb[4:1]/7hb[4:1],{16},
37,8,16,25,3,46,3/7-3[16:1],8-4[16:1],1-5[16:1],2-6[16:1],7bx,8bx,1bx,2bx,,
{32}84,,6,5,7^4[16:1],,1-5[16:1],8,{16}1,53,7,1,{32}8,,6,5,7-1[16:1],,2-6[16:1],1,{16}3,64,7,2,
{32}8,8,4,7,56,,1,1,5,2,43,,56,4,3,2,18,7,6,5,4h[8:1]/3v8[16:1],2,1,8,7,6,5,4,{8}7b/3x,
{32}5,5h[32:3],{64}7,8,1,2,3,,,,{32}8,8h[32:3],{64}6,5,4,3,2,,,,
{32}15,6,7,8,16,7,8,1,27,8,1,2z6>6^4-8[16:23]b,
{8}3hb[96:11]/7hb[96:11],{96}8x/4x,15,26,37,,,,,,,,,{2}Cf,,,
{8}5,5,4,2-4[32:1]/6-4[32:1],8,,{16}7,3,5h[8:3],,{8}D4,D7,{16}2,2,4,4h[16:5],{8}D6,D3,
{16}5,5,{8}6,3,4^2[32:1]b/5^7[32:1]b,4z8[16:1]/5s1[16:1],,4x/5x,
2h[16:1]/7h[16:1],3bV51[32:3]/6b,{16}15,6,7h[8:1],,8xV64[16:1],,,1/2,3hx[8:3]/8x,,
{8}4x-8[16:1],2x-6[16:1],{16}4V68-2[8:1],3,2x<4[4:1],,4,,4x,3,2,1,
{8}8xs4[16:1]*z4[16:1],2h[16:1]/6h[16:1],,{16}1v6[16:1],3h[16:3],5v2[16:1],,,,
7h[8:1],,1h[16:1],3h[16:1],4h[16:1],6h[16:5],{8}A8/B8,A4/B4,
{16}2-4^5-7[8:1],18,18,18,{8}2/7<2[8:1],Ch[16:1],{16}E3,E4,E6,E7,
{32}8,7,8,7,2,4,3,4,2,1,2,1,5,6,5,7,
{48}3,2,1,8,7,6,53,2,1,8,7,6,54,3,2,1,8,7,64,3,2,1,8,7,
4,5,4,5,4,5,3,6,3,6,3,6,2-6[32:1]b,7,2,7-3[32:1]b,2,7,1,8,1,8,1,8,
{16}2b`Cf,{1}7b`Cf,,,,E
Re:MASTER
- 追加しました。修正等ありましたらよろしくお願いします。 -- けもがみ (2024-02-03 02:01:21)
- スライドの速さ等を一部修正しました。 -- けもがみ (2024-02-04 21:13:40)
- EXPERT譜面を追加しました。修正等ありましたらよろしくお願いします。 -- Sugar (2026-01-09 23:15:42)
最終更新:2026年04月11日 22:03