アットウィキロゴ

渦状銀河のシンフォニエッタ〈でらっくす〉

アーティスト 山本真央樹

BPM BASIC ADVANCED EXPERT MASTER Re:MASTER
238 3 8 11+ 14+ -

EXPERT MASTER Re:MASTER
譜面制作者 華火職人 ぴちネコ -

BASIC


ADVANCED


EXPERT

(238){4}3h[2:1],,4,4,2h[2:1],,5,,6h[2:1],,5,5,7h[2:1],,4,,3h[2:1],,4,4,2h[2:1],,4,4,1h[2:1],,4,4,2h[2:1],,Chf[2:1],,,,2h[2:1],,1,1,3h[2:1],,8,,7h[2:1],,8,8,6h[2:1],,
1,,1b/8b,1b/8b,2,2h[4:1],3,3h[4:1],4,4h[4:1],1,3/8,7,7h[4:1],6,6h[4:1],5,5h[4:1],8,6/1,{8}2-5[8:1],,,8-4[8:1],,,2-6[8:1],,,7-4[8:1],,,{4}3,2/4,1,8,5/7,6,3/5,{8}2,2,,7,7,,4/5,4/5,,3/6,3b/6b,,1b/8b,,{1}2b<3[4:5]/7b,,Chf[1:1],,{4}2>5[2:1]/8,,,,7<4[2:1]/1,,,,2,4,7,5<4[4:3],,,,,4/5,2h[4:1]/1h[4:1],,5/4,7h[4:1]/8h[4:1],,4/5,2>8[2:3]/7<1[2:3],{1},,

{1}3/4h[1:1],5h[1:1],{2}6h[1:1],E5,4,5,{1}6/5h[1:1],4h[1:1],{2}3h[1:1],E5,5,4,5/4h[1:1],,3h[1:1],,2h[1:1],C,1,8,1/8h[1:1],E7,1h[2:3],E3,8h[2:1],,{8}1x,8x,1x,8x,1x,,2x/7x,,4/5,,3b/7b,,{8}1,,3/4,,2,2,4,,3/5,,1,,4/6,,8,,7,,5/6,,7,7,5,,4/6,,8,,3/5,,1,,2,,3/4,,2,2,4,,3/5,,1,,6/4,,8,,7,,5/6,,7,7,5,,4/6,,2/8,,3b/7b,,,,6h[4:1],,5,5h[4:1],,8,8,,3h[4:1],,
4,4h[4:1],,1,1,,3/8,,7,,1/6,,2,,3/5,,1/8,,2b/7b,,,,2h[4:1],,1,1h[4:1],,4,4,,7h[4:1],,8,8h[4:1],,5,5,,1,,2/4,,8,,5/7,,4/5,,1,1,,7<2[8:3]/8,,,,,,,

{4}1b,,6,6,4,4pp5[4:3],,,,,3,3,5,5qq4[4:3],,,,,6,6,4,4,5,5,3,,6<1[2:1],,,,3>8[2:1],,,,6q3[2:1],,,,B1/E2,,B5/E6,,
3,3h[4:1],4,4h[4:1],5,5h[4:1],6,6h[4:1],7,7h[4:1],8,8h[4:1],1,1,1/8,2b/7b,{8}3-8[8:1],,,5-1[8:1],,,4-8[8:1],,,6-1[8:1],,,3,,2/4,,1,,8,,5/7,,6,,2h[2:1]/7h[2:1],,,,,,1b/8b,,7x,7x,5x,5x,4x,4x,2x,2x,Chf[2:1],,,,,,,,2/7,,8,8,,4,4,,2/5,2/5,,4/7,4b/7b,,1b/8b,,{1}4b/5b<4[4:5],,8/2>5[8:3],1/7<4[8:3],{4}4/5,7h[4:1]/8h[4:1],,5/4,2h[4:1]/1h[4:1],,4/5,2<5[4:5]/7>4[4:5],,,,,,,,1b/8b,

{8}3/6,,8,8,,2<5[8:5]/4,,,,,,,,,3/4,,2/5,,1,1,,7/8,,6/1,,5,5,3,4,,2b/6b,,7h[4:1],,8,8-4[8:1],,6,6,,2h[4:1],,1,1-5[8:1],,3,3,,6,5,7,7h[4:1],,8,,1/6,1/6,,1/2,,3b/8b,,,,3/6,,1,1,,5/7>4[8:5],,,,,,,,,5/6,,4/7,,8,8,,2,1,3,3,,5,5,,3/6,3/6,,7h[4:1],,5,5-1[8:1],,6,6,,2h[4:1],,4,4-8[8:1],,3,3,,6,5,7,,3,4,2,,1-4[8:1]/8-5[8:1],,,,{2}3b/6b,6<3[4:3],,5<2[4:3],,6h[2:1],8h[2:1],1h[2:1],2,3>6[4:3],,4>7[4:3],,3h[2:1],1h[2:1],8h[2:1],6,{8}4/5,,6,6,,2,2w6[8:3],,,,,,,,,,8/1,,2,2,,6,6w2[8:3],,,,,,,,{4}2b/7b,,5,5,4,4,4/5,3/6,2/7,1>8[4:5]/8<1[4:5],,{1},{4},,

{4}7,7h[4:1],8,1,6h[2:1],8,1,,2,2h[4:1],1,8,3h[2:1],1,8,,6,6h[4:1],7,7h[4:1],8,8h[4:1],5,4/7,3,3h[4:1],2,2h[4:1],1,1h[4:1],4,5/2,{8}6-1[8:1],,,4-8[8:1],,,5-1[8:1],,,3-8[8:1],,,6,,5/7,,1/8,,2/4,,4/5,,3/6,,2b<3[4:5]/7,,{4},,,,,,,2b/7b,E

MASTER

(238)
{4}24,5,46,3,12,3,45,6,57,4,35,6,78,6,45,3,
1h[2:1]/2,3,4h[2:1],2,3h[2:1],2,1h[2:1],8,
7h[2:1],6,5h[2:1],7,8h[2:1],7,6h[32:15],1h[32:7],
{32}5x/8x,4x/7x,3x/6x,2x/5x,,,,,{4},
7/8h[2:1],6,5h[2:1],7,6h[2:1],7,8h[2:1],1,
2h[2:1],3,4h[2:1],2,1h[2:1],2,3h[8:5],8h[8:3],
{32},,,,,1x/4x,2x/5x,3x/6x,{4}4x/7x,
6xp1[4:1],3,4q8[4:1],6,5p1[4:1],2,3q8[4:1],7,
6x,16,38,24,57,18,{8}3,3,6,6,
{8}4h[4:1]/5h[8:5],,,3h[8:5],,,7h[8:5],,,1h[8:3],,,
{4}8h[4:1],6h[4:1],5h[4:1],4h[4:1],3h[4:1],1,{8}1b/8b,,,
{24}8x/B1,7/B2,6/B3,5/B4,,,{8},
{24}1x/B8,2/B7,3/B6,4/B5,,,{8},
{24}8x/B1,7/B2,6/B3,5/B4,,,{8},
{24}1x/B8,2/B7,3/B6,4/B5,,,
{4}1x/8x,{1}1h[2:3]/8b>7[4:5],,
{12}6,5,6,3,4,3,6,4,7,3,8,2,{1}1b,
{2}B2f/B3f/B6f/B7f/Cf,{12}6,5,6,3,4,3,7,6,7,2,3,2,7,8,7,2,1,2,
8,7,6,1,2,3,7,6,5,2,3,4,7,5,7,3,4,3,6,5,6,2,4,2,
{4}1x/4x<8[4:1],{24}1x/4x,E1,B8,B7,B6,B5,{4}E5,
5x>1[4:1]/8x,{24}5x/8x,E1,B1,B2,B3,B4,{4}E5,
{4}1xpp4[2:3]/5xpp8[2:3],1b/5b,{1},,
{24}6h[2:1]/B3,B4,B5,,,,{4},,,
{24}3h[2:1]/B6,B5,B4,,,,{4},,,
{24}7/B2,B3,B4,,,,,,,,,,8/E2,E3,E4,,,,,,,,,,
1/E8,E7,E6,,,,,,,,,,2/B7,B6,B5,,,,,,,,,,
3h[2:1]/B8,C,B3,,,,{4},,,
{24}6h[2:1]/B1,C,B6,,,,{4},,,
{24}4h[2:1]/B6,B5,B4,,,,{4},,,
{24}5h[2:1]/B3,B4,B5,,,,{4},1h[2:1],,
{2}7^2[8:4],3p6[8:4],{1}5p4[2:1],1q7[2:1]/2>6[2:1],7<3[2:1]/8p2[2:1],
{8}36,,,13,,68,,45,{4}4h[2:1]/5h[2:1],,,2qq5[4:3]/7pp4[4:3],
{1}2x/7x,{8}36,B4/E4,B8/E8,B2/B3,B6/B7,B1/E2,B5/E6,C,{4}8bw4[8:1],,
2x/7x,{12}6,5,6,2,4,3,7,5,6,{4}1>5[4:1],6,6,{8}46,5,
{4}4q1[4:1]/6,6,6,{8}16,2,{4}3p4[4:1]/6,6,6,{8}36,27,
{2}1x-5[8:1]/8x-4[8:1],{12}7,5,6,2,4,3,{4}8<4[4:1],3,3,{8}35,4,
{4}5p8[4:1]/3,3,3,{8}38,27,{2}1-5[8:1]/6-2[8:1],{16}7,8,7,8,7,8,7,,
{8}2x/6x,,3,4,3,6,3,8,13,,6,5,6,3,6,1,
68,,34,34,,6,7,8,{16}2,1,2,1,3x/8x,,,,6,5,6,5,4x/7x,,,,
{8}18,,3,4,3,6,3,8,13,,56,5-1[8:1]/6,,8<1[2:1],,8h[8:4],
{4},,{8},8,1,8,27,,34,3/4-8[8:1],,1,,27,
{16}1,8,1,8,{4}2x-5[8:1]/7x-4[8:1],,,
8/B1,8/B7,8/B3,8/B5,{8}3,4,5,6,5,4,3,2,
{4}1/B8,1/B2,1/B6,1/B4,{8}6,5,4,3,4,5,6,7,
18,,3,1,4,8,5,7,56,,6,4,7,3,8,2,
{12}18,7,6,2,3,4,E1,E8,E7,E6,E5,E4,
1,2,3,7,6,5,E1,E2,E3,E4,E5,E6,
8,7,6,2,3,4,E2,E1,E8,E7,E6,E5,
1,2,3,7,6,5,E8,E1,E2,E3,E4,E5,
{4}5x/6x,36,16,67,34,36,38,23,
5/6h[2:1],{24}E8,B7,B6,{8}E6,
3h[2:1],{24},,,E2,B2,B3,{16}E4,,
{12}6,4,5,4,5,4,7,5,6,2,4,3,
{8}4h[8:1]/5h[4:2],,2,3h[4:2],,7,6h[4:2],,1,2h[8:3],,8,7,{16}1,8,27,,,,
{16}3,6,4,5,3,6,4,5,3,6,4,5,{4}2xV84[8:5]/7xV15[8:5],,,,,
{8}5x/7x,4,3,2x/4x,5,6,5x/7x,46,35,2x/4x,35,46,
{32}8x,7,6,5,4,3,2,1,8,7,6,5,4,3,2,1,{8}4x/8x,,,
{24}8x/B1,7/B2,6/B3,5/B4,,,{8},
{24}1x/B8,2/B7,3/B6,4/B5,,,{8},
{24}8x/B1,7/B2,6/B3,5/B4,,,{8},
{24}1x/B8,2/B7,3/B6,4/B5,,,{4}1x/8x,1b/8b,,
{12}B4,B8,B3,B7,E3,E7,B2,B6,B1,B5,E1,E5,B8,B4,B7,B3,E7,E3,
8x,4,1,5,2,6,3,7,4,8,5,1,2x/6x,,,4,5,4,7,5,7,2,4,2,
{4}1x/4x<8[4:1],{24}1b/4b,E1,B8,B7,B6,B5,{4}E5,
5x>1[4:1]/8x,{24}5b/8b,E1,B1,B2,B3,B4,{4}E5,1xpp4[4:3]/5xpp8[4:3],{1}1b/5b,
{16}8,4,8,4,7,3,7,3,6,2,6,2,{2}5w1[8:1],
{8}3x/7x,,68,6-2[8:1]/8,,4,,13,{4}1-5[8:1]/3,3,3/4-8[8:1],3,
{8}37,,13,1/3-7[8:1],,5,,68,68,7,8,1-5[8:1]/5,,8x,8x,,
2/7-3[8:1],,1,1-6[8:1],,4-8[8:1],,3,2,1pp3[8:1]*qq7[8:1],,,,8x,8x,,
2-6[8:1]/7,,8,8-3[8:1],,5-1[8:1],,6,6h[2:1],,2,2h[8:1],,E3/E7,E1/E5,,
{16}8x,7,6,B3,B4,B5,7,6,5,B1,B2,B3,8,7,6,,
1x,2,3,B6,B5,B4,2,3,4,B8,B7,B6,1,2,3,,
8x,7,6,E3,E4,E5,7,6,5,E1,E2,E3,8,7,6,,
1x,2,3,E7,E6,E5,2,3,4,E1,E8,E7,1,2,3,,
{8}B2/B7/C,,6,5,6,3,6,1,68,,34,3/4-8[8:1],,1>8[2:1],,1h[2:1],
{2},{8},27,27,,{12}6x,6,6,5x,5,5,4x,4,4,3x,3,3,
{4}2b/7bp2[2:1],,1,1,{12}1h[12:4],,,,8h[12:4],,,,7,,6,,
{4}5-2[4:1],1,1-6[4:1],4,4-7[4:1],8,8-3[4:1],5,
{1}5x<4[2:1]*q4[2:1],{2}1h[4:1]/3h[4:1],6h[4:1]/8h[4:1],
{4}4h[4:1]/5h[4:3],{32},3x,2x,1x,8x,7x,6x,,
{4}4hx[4:3],{32},6x,7x,8x,1x,2x,3x,,
{4}5hx[32:16],{32},3x,2x,1x,8x,7x,6x,,{2}4x,
{8}57,6,6,17,8,8,{2}1x<2[2:1]/3x,{24}B1,B8,B7,B6,B5,B4,B3,,,,,,{4}1x/8x,
{8}24,3,3,28,1,1,{2}6x/8x>7[2:1],{24}B8,B1,B2,B3,B4,B5,B6,,,,,,{4}1b/8b,
,46,35,47,25,48,
{32}1x/5x,2,3,4,5,6,7,8,1,2,3,4,5,6,7,8,{2}1hx[1:1]/5x,
{32}B1,B2,B3,B4,B5,B6,B7,B8,E1,E2,E3,E4,E5,E6,E7,E8,{1},
{24}38,4,5,,,,{4}7,{24}26,3,4,,,,{4}7,{24}18,2,3,,,,{4}7,6,5,
{24}16,5,4,,,,{4}2,{24}37,6,5,,,,{4}2,{24}18,7,6,,,,{16}B2,B7,B3,B6,{2}Ch[4:1],
{4}1/2h[4:1],1,3/4h[4:1],3,7/8h[4:1],7,5/6h[4:1],5,
3h[2:1]/4,{24}E2,B2,B3,E4,,,{8}
6h[2:1],,{24}E8,B7,B6,E6,,,{8}
{2}4x-8[8:1],{8}26,37,26,37,
{8}2h[4:1]/6h[4:1],,,4h[4:1]/8h[4:1],,,1h[4:1]/5h[4:1],,,3h[4:1]/7h[4:1],,,
{4}4h[8:1]/6h[8:1],3h[8:1]/5h[8:1],4h[8:1]/7h[8:1],2h[8:1]/5h[8:1],4h[8:1]/8h[8:1],1h[8:1]/5h[8:1],
{2}3b/7b,{12}1,1,1,1,1,1,1,1,1,1,1,1,
{32}1x,2x,3x,4x,5x,6x,7x,8x,{4}1xw5[8:1],
{32}1b,B1,Cf,B5,
{1},,,,,,,,,,,,,,,
E

Re:MASTER


  • 一部のqq/ppスライドを修正しました。 -- Kuuchi (2024-03-27 19:48:00)
  • ノーツの配置ミスの修正を行いました。 -- けもがみ (2026-01-29 21:56:24)
  • EXPERT譜面を追加しました。修正等ありましたらよろしくお願いします。 -- Sugar (2026-04-19 13:29:36)
名前:
コメント:

タグ:

+ タグ編集
  • タグ:
最終更新:2026年04月19日 13:29