BASIC
(88.8){4}8,(78.8)8,8,(88.8),78,78,78,,1,1,(78.8)1,(68.8),(88.8){2}1h[2:1]/8h[2:1],,{8}2,2,2,,{2}12,{8}3,3,3,,45,,,,6,6,6,,56,,,,7,7,7,,18,,,,8,8,8,,7,7,7,,6,6,6,,45,,45,,4,4,4,,3,3,3,,2,,2,,1b/8b,,,,{2}1h[8:3]/2h[8:3],,7h[8:3]/8h[8:3],,(88.8){2}B1/B8,{4}B2/B7,(78.8){8},,B3/B6/Ch[64:69],(68.8),(58.8){16},(48.8),(38.8),(177.6){1},{8},(88.8){1},1-4[8:3]/8-5[8:3],
{8}4x,4,4,4,3,3,34,,2,2,2,2,1,1,18,,8,8,1,1,18,18,27,,8,8,8,8,7,7,78,,56,,56,,5x/6x,,,,4,4,4,4,5,5,5,5,45,45,45,45,36,,,,{1}4-1[8:3],8-5[8:3],3-6[8:3],7-2[8:3],{8}1x,1x,1x,,28,,82,,8x,8x,8x,,17,,,,{1}Ch[1:1],,
{2}E2,E3,E4,E5,E6,E7,E8,C,(177.6){4}8,8,7,7,5h[4:1]/6h[4:1],,56,,4,4,3,3,1h[4:1]/2h[4:1],,12,,1,1,2,2,3,3,45,45,6,6,7,7,{1}18,1>4[4:3],,5<8[4:3],,{2},1x/8x,1x/8x,1x/2x,1b/2b,1b/8b,7b/8b,1b/8b,{4}1,1,2,2,34,34,45,45,6,6,7,7,78,78,18,18,{8}1,1,1,,28,,28,,8,8,8,,{4}17,,18,18,27,36,45,36,27,18,{2}8h[4:1],7h[4:1],5h[4:1]/6h[4:1],5h[4:1]/6h[4:1],4h[4:1],3h[4:1],1h[4:1]/2h[4:1],1h[4:1]/2h[4:1],{4}1x/8x,1bx/8bx,1x/8x,1x/8x,{8}2,2,2,,3,3,3,,4,4,4,,5,5,5,,6,6,6,,7,7,7,,{4}1b/8b,1,2,3,4,5,6,7,18,7,6,5,4,3,2,2,12,12,34,34,56,56,78,78,56,34,12,78,
(78.8)7xh[64:159]/8x,,,{24},,(58.8){2}Ch[64:79],(68.8){24},,,,,(58.8){4},(48.8),{1},,E
ADVANCED
(88.8)
{4}5h[32:17]/6h[32:17],(78.8),,(177.6),,(88.8){1}3h[2:1]/4h[2:1],{2}2h[2:1]/7h[2:1],(78.8){4},(68.8),(88.8){1}1b/8b,{8}7,7,7,,6,6,6,,5,5,5,,34,34,34,,2,2,2,,3,3,3,,4,4,4,,56,56,56,,7h[4:1],,8,,7,7,78,,2h[4:1],,1,,2,2,12,,7h[4:1],,8,,7,7,78,,2h[4:1],,1,,2,2,12,,{32}3x,,,3x,,,3x,,,,,,2x/4x,,,2x/4x,,,2x/4x,,,,,,{4},{32}6x,,,6x,,,6x,,,,,,7x/5x,,,7x/5x,,,7x/5x,,,,,,{4},{8}4,3,2,1,8,7,(78.8)6,5,4h[64:69]/5h[64:69],(68.8),(58.8){16},(48.8),(38.8),(177.6){1},{8},(88.8){1},
(177.6){8}3,3,3,,2,2,2,,1,1,1,,78,,,,6,6,6,,7,7,7,,8,8,8,,12,,,,2,2,2,,3,3,3,,4,4,4,,56,,,,7,7,7,,6,6,6,,5,5,5,,34,,,,3,3,34,,2,2,12,,8,8,78,,16,,,,6,6,56,,7,7,78,,1,1,12,,38,,,,2,2,12,,3,3,34,,6,6,56,,47,,,,7,7,78,,2,2,12,,{4}18,27,36,45,{2}3h[2:1],4h[2:1],5h[2:1],6,6h[2:1],5h[2:1],4h[2:1],3,2h[2:1],3h[2:1],4h[2:1],5,7h[2:1],6h[2:1],5h[2:1],4,{8}34,34,34,,25,,,,56,56,56,,47,,,,78,78,78,,61,,,,12,12,12,,38,,,,{1}1q4[4:5],,5-8[4:3],,
{4}B2,B3,B4,,B7,B6,B5,,B1,B2,B3,,B8,B7,B6,,B1,B2,B3/B4,,B8,B7,B6/B5,,B2,B1,B8,B7,{1}C,{8}1x/2x,1x/2x,,34,34,,56,56,,78,78,,16,,,,7x/8x,7x/8x,,56,56,,34,34,,12,12,,38,,,,2,2,2,,3,3,3,,4,4,4,,5,5,5,,6,6,6,,7,7,7,,{1}1bx/8bx,8p5[4:5],,4-1[2:1],{4}78,78,12,12,,,
{2}1bx/8bx,18,27,36,45,{4}34,34,56,56,{8}6,6,7,7,8,8,12,,3,3,2,2,1,1,78,,7,7,6,6,5,5,34,,2,2,3,3,4,4,45,,6,6,78,78,1,1,12,,3,3,12,12,8,8,78,,6,6,5,5,4,4,3,3,{4}12,34,56,78,{8}6,6,56,,7,7,78,,1,1,12,,3,3,45,,3,3,34,,2,2,12,,8,8,78,,6,6,{4}4h[4:1]/5h[4:1],,3b/6b,,,{8}5,6,7,8,1,2,34,,4,3,2,1,8,7,56,,6,7,8,1,2,3,45,,3,3,3,3,2,2,2,2,1,1,1,1,8,8,78,,6,6,6,6,7,7,7,7,8,8,8,8,1,1,21,,3,2,1,8,7,6,5,4,3,2,1,8,7,6,45,,5,6,7,8,1,2,3,4,(78.8){4}4xh[64:159]/5xh[64:159],,,{24},,(58.8){2},(68.8){24},,,,,(58.8){4},(48.8),{1},,E
EXPERT
(88.8)
{128}4x>5[128:332],5x<4[128:331],,,,,,,{16},,,(78.8){2},(88.8){4},,,,,,,(78.8),(68.8),(88.8){8}4,4h[8:5],,,5,5h[8:1],,,{16}3,4,5,6h[16:5],,5,4,3,3<6[8:1],,,,,,,,7,6,5,4h[16:5],,5,6,7,7<4[8:1],,,,,,,,2,3,4,5h[16:5],,4,3,2 ,2>5[8:1],,,,,,,,4,5,6,7h[16:2],,6,5,4,3p1[4:1],3,5,5,,,,,6h[4:1],,2,2,1h[4:1],,6,6,5h[4:1],,1,1,8h[4:1],,5,5,4h[4:1],,8,8,7h[4:1],,4,4,3h[4:1],,7,7,6h[8:1],,2,,7,5,3h[4:1],,5,6,7h[4:1],,3,4,5h[4:1],,7,8,1h[4:1],,5,6,7h[4:1],,1,2,3h[8:1],,6,,27,27,,54,,,{32}3,,,24,,,24,,{48}E5,B5,B6,B7,E8,,{32}3,,,24,,,24,,{48}E5,B5,B6,B7,E8,,{16}1,2,34,,{32}6,,,57,,,64,,{48}E4,B3,B2,B1,E1,,{32}6,,,75,,,6p4[16:3]/4,,{48}E4,B3,B2,B1,E1,,{4},3h[4:1],4h[4:1],5h[4:1],(78.8){8}6h[4:1],,7h[1024:275],(68.8),(58.8){16}8h[64:15],(48.8),(38.8),(177.6){8}1b,,,,,,,,{8},(88.8)C,,{4},,{16}4>5[2:1],4,5,,{4}Cf,,,{16}45,36,,,2,2,6,6,{32}3,4,5,,5,,,,{16}7,7,3,3,{32}6,5,4,,4,,,,2,,2 ,,6,,6,,3,4,5,,3,4,5,,{16}2,2h[8:1],3,3h[8:1],4,4h[16:1],5,,46,3,2,18,7-4>1-5[16:4],6,35,,,,,,,,64,,3,3,7,7,{32}2,1 ,8,,8,,,,{16}6,6,2,2,{32}7,8,1,,1,,,,{12}3h[8:1]/7h[8:1],,,3b/5b,8b/6b,1b/2b,{8}1b-5[8:1]/2b,83,,,{16}2,2,6,6,{32}3,4,5,,3,4,5,,2,,2,,6,,6,,1,8,7,,1,8,7,,{16}2,2,4,4,5,5,46,,7h[8:1],,5h[8:1],,4h[8:1],,2,,1p5[8:1]*q5[8:1],1,73,,,,,,8p4[8:1]*q4[8:1],8,26,,,,,,2p6[8:1]*q6[8:1],2,84,,,,,,2/8<5[8:1],,6/4>1[8:1],,{4},{16}8q4[16:1],8,8<5[16:1],8,,,,,3q7[16:1],3,3>8[16:1],3,,,,,5pp5[16:3],5,5 ,5, ,,,,4>1[24:2],,7/1q5[24:2],,,,,,8<6[16:1],8,8v5[16:1]*>2[16:1],8,,,,,4>2[16:1],4,4v1[16:1]*<6[16:1],4,,,,,7>1[16:1],7,7v4[16:1]*<5[16:1],7,,,,,1x-3[24:1]*-4[24:1],1,1-7[24:1]*-6[24:1],1,1x-5[24:1],,,,{1},{2},E7/B6/B7/Ch[2:1],{8}7v4V61[2:1],7h[8:5],,,,,,,2p5p8[2:1],2h[8:5],,,,,,,6pp7p3[2:1],6h[8:5],,,,,,,4-7[8:1],4h[8:3] ,,,8,{16}26,26,,73,,,
(177.6){8}8,8-4[16:1],,3,3-6[16:1],,7,7-2[16:1],,1,1-5[16:1],,7,,46,,6,6-1[16:1],,4,4-8[16:1],,7,7-3[16:1],,5,5-2[16:1],,7,,54,,34,43,25,52,16,61,78,87,56,65,34,43,12,21,78,87,{16}6,6,6,,5,5,5,,4,4,4,,3,3,3,,{4}24,35,6p2[4:1] ,2>1[4:15],,,,,B6,,,,B3,,,,C,,,,,,1bw5[8:1]b,,8bw4[8:1]b,,2bw6[8:1]b,,7bw3[8:1]b,,4bw8[8:1]b,,26,{8}78,6,45,3,1b/2b,,2-7[16:1],2,3-6[16:1],3,1-6[16:1],1,4-7[16:1],4,3>8[16:1],3,6,{16}6 ,5,4,,{8}4,35,6,4/7-2[16:1],7,6-3[16:1],6,8-4[16:1],8,5-1[16:1],5 ,7p3[16:1],7,2,{16}2,1,8,,{8}8,17,,{24}3,4,3,,,,6,5,6,,,,3,4,3,,,,{8}25,25,{24}6,5,6,,,,3,4,3,,,,6,5,6,{16},6x/5x,,,6x/5x,,{8}4x,3,2,1,8,7,6,5,34,34,25,25,16,16,1h[4:1]/6,,{4}5b<8[8:1],E4f/B3/E3,1b>4[8:1],E8/B7/E7f,5b<8b[8:1],B4/A4f,1b>4b[8:1],B5/A5f,6b/3bv1[8:1],D5/E5/B5/B4f,7bv5[8:1],A3f/E4/B3/E3,1V75[2:1]*V35[2:1],,, ,,
{24}18,2,3,4,5,6,7,8,1,2,3,4,5,6,7,8,1,2,3,4,5,6,7,8,1,2 ,3,4,5,6,7,8,1,2,3,4,{4}5b,
6h[4:1]/4-8[16:1], ,7h[4:1]/2-6[16:1],,{8}8h[8:3]/4,3,2,1-5[16:1],,7,,,{24}8b,7,6,5,,,,,,,,,2b,3,4,5,,,{4},{24}8b/7b,16,25,34,,,{4},{24}1b/2b,83,74,65,,,{4},{6}1>4[12:1],7,6,5<8[12:1],3,2,1>4[12:1],7,6,{4}5-1b[16:1],4,{8}3-7[16:1],3,5-8[16:1],5,2-6[16:1],2,1-4[16:1],1,8-5[16:1],8 ,7-3[16:1],7,1,1,27,,{24}1,8,1,8,1,8,1,8,1,8,1,8,2x,7,2,7,2,7,2<1^8<7<6>5^4>3>2[16:43],7,2,7,2,7,(78.8){4}2b,,,{24},,(58.8){2},(68.8){24}E3,,,,,(58.8){4}E7,(48.8)E1,{96}E7,B5,B4,E3,,,,E
MASTER
(88.8)
{128}6<6[16:25],5,4,,,,,,{16},,,(78.8){2},(88.8){1},{4},
{2}4-1[4:1],(78.8){4}6,(68.8){4}8^5[20:1],
(88.8){64}1,2,3,4h[64:5],,,,,{8},,,4h[8:1]/5h[8:1],,{16}36,36,,,
6,5,4,3,6-3[8:1],5,4,3,2h[16:5],{4},{16}4,4,3,
3,4,5,6,3-6[8:1],4,5,6,7h[16:5],{4},{16}5,5,6,
6,5,4,3,6-3[8:1],5,4,3,2h[16:5],{4},{16}4,4,3,
3,4,5,6h[8:1],,3,3,2b/8h[8:1],,1,1,{32}7,8,{16}7,18,27,,
3/5>1[8:1],6,6,6,7,7,7,7,18,{32}7,8,7,8,{16}7,78,16,25,3,4<8[8:1],3,3,3,2,1,1,1,
{48}D8,A7,D7,A6,D6,A5,D5,A4,D4,A3,D3,A2,D8,A7,D7,A6,D6,A5,D5,A4,D4,A3,D3,A2,
{16}8x<4[8:1],1x,1x,1x,2,2,2,2,{32}2,4,3,5,4,6,5,7,{16}4,4,2b/6,,
{32}3b,4,3,4,3,4,2b,4,3>6[8:1],4,3,4,1b,4,3,4,
{16}3bx,,,{24}1hx[48:1]/8hx[48:1],1hx[48:1]/8hx[48:1],,{16}27,Cf,,
{96}8bx,7,6,5,,,{32},{96}8bx,7,6,5,,,{32},{96}8bx,7,6,5,,,{24}1hx[48:1],1hx[48:1],,
{96}1bx,2,3,4,,,{32},{96}1bx,2,3,4,,,{32},{96}1bx,2,3,4,,,{24}8hx[48:1],8hx[48:1],,{8}E2,E4,
{96}7b,6,5,4,,,{32},{96}7b,6,5,4,,,{32},{96}7b,6,5,4,,,{24}1h[48:1],1h[48:1],,
{96}2b,3,4,5,,,{32},{96}2b,3,4,5,,,{32},{96}2b,3,4,5,,,{24}8h[48:1],8h[48:1],,
{16}1V35[4:1],1,7,,{4}5V71[4:1],1>5[4:1],5<1[32:9],(78.8){8}1s5[64:29],,,(68.8),{16}(58.8),(48.8),(38.8),
(88.8){4}8h[16:9],,{16},{4}C,,,
{16}4>5[2:1]/5<4[2:1],36,27,,{4}A4/D5f/A5,,,{16}46,3h[16:1]/7h[16:1],,,
2b/6b,3,45,{32}6,5,7,5,{16}6,71,2,38,{32}7,4,6,5,{16}6,4/7-5[16:1],4,3,2,
7/1-3[16:1],8,8,8,1/5^8[16:1],4,4,4,35,2,1,8,27,36,4/5h[8:1],,
{32}3,4,2,5,1,6,8,7,5,6,4,7,3,8,2,1,8,7,6,5,43,2,1,8,15,26,37,48,{8}5b/1b,
{32}7,5,6,5,7,,3,4,2,4,3,,25,,34,,2,1,3,1,2,,7,8,6,8,{16}7,18,27,3b/6b,,
{32}5,4,3,2,{12}1b/D7f/E7/B7,8b/D4f/E4/B3,2b/D6f/E6/B6,{8}1h[8:1],3h[8:1],5h[8:1],6,
{16}7-4[16:1],4-8[16:1],8-3[16:1],3-7[16:1],{4},{16}2-5[16:1],5-1[16:1],1-6[16:1],6-2[16:1],{4},
{16}7,8,1,2,3-8[16:1]/4-7[16:1],25,{8}16,34,,,1h/5h,
{48}1b,2,3,4,5,6,7,8,1,2,3,4,6b,7,8,1,2,3,4,5,6,7,8,1,3b,4,5,6,7,8,1,2,3,4,5,6,
8b,1,2,3,4,5,6,7,8,1,2,3,5b,6,7,8,1,2,3,4,5,6,7,8,2b,3,4,5,6,7,8,1,2,3,4,5,{8}6<2[8:1],35,4,4h,
{48}8b/4,7,6,5,4,3,2,1,8,7,6,5,3b,2,1,8,7,6,5,4,3,2,1,8,6b,5,4,3,2,1,8,7,6,5,4,3,
1b,8,7,6,5,4,3,2,1,8,7,6,4b,3,2,1,8,7,6,5,4,3,2,1,7b,6,5,4,3,2,1,8,7,6,5,4,{8}3>7[8:1],64,5,5h,
{48}1b/5bx,2,3,4,5,6,7,8,1,2x/7b,6,5,4,3,2,1,8,7,6x/3b,4,5,6,7,8,
1x/5b,4,3,2,1,8,7,6,5,4x/1b,2,3,4,5,6,7,8,1,2x/6b,5,4,3,2,1,
8x/4b,5,6,7,8,1,2,3,4,5x/8b,7,6,5,4,3,2,1,8,7x/3b,4,5,6,7,8,
{8}1bx/E5f,7/E4f,2/E6f,8/Cf/B4/B5,{1}1-5[4:3],1V35[2:1]*V75[2:1],
{8}7/Ch[8:1],{4}7pp4[8:3],,,{8},2/Ch[8:1],{4}2qq5[8:3],,,
{8},7/Ch[8:1],{4}7qq1[8:3],,,{8},2/Ch[8:1],2,1h[8:3]/8,8,7h[16:3],,{16},C,,,
(177.6)
{8}1b,1b-4[8:1],,7b,7b-2[8:1],,4b,4b-1[8:1],,7b,{4}7b-4-8-3[8:3],2,2,
{8}1b,1b^6[8:1],,4b,4b^1[8:1],,7b,7b^4[8:1],,3b,{4}3bv8-2[16:5]*v6-4[16:5],,,
{8}3,3,4,4,5,5,6,6,57,7,64,4,35,24,1b/5b,1b/5b,{16}2,4,2,4,3,3,3,,7,5,7,5,6,6,6,,
{1}Cf/1,1>8[8:29],,,,{4},
1^4[8:1]/8^5[8:1],A1/D1f/A8,8^3[8:1]/7^4[8:1],A8/D8f/A7,2^5[8:1]/1^6[8:1],A2/D2f/A1,
8^3[8:1]/7^4[8:1],A8/D8f/A7,1^4[8:1]/8^5[8:1],A1/D1f/A8,1x/8x,
{32}1,2,3,4,5,6,7,8,1w5[8:1],2,3,4,5,6,7,8,{4}1,37,
{16}3/8b,,2,1,3^8[8:1],,5,,3/7v4[8:1],6,5,,73,,3,,51,,7,8,6^1[8:1],,4,,6/2v5[8:1],3,4,,26,,6,,
48,,3,4,2-5[8:1],,1,,2/8-3[8:1],7,6,,68,,7,,{4}4^1[8:1]/8^5[8:1],4-7[8:1]/8-3[8:1],48,4b/8b,
{32}3,4x,7,6x,3,4x,7,6x,2,3x,8,7x,2,3x,8,7x,{8}1b,,35,35,
{32}6,5x,2,3x,6,5x,2,3x,7,6x,1,2x,7,6x,1,2x,{16}8b,,,17,,,26,,3,4,3,,6,5,6,,2,4,2,,6,4,6,,
{8}5h[16:1]/3,5h[16:1],5h[16:1]/7,5h[16:1],5h[16:1]/2,5h[16:1],{4}5/8b,
{12}2h[4:1]/1,1,1,1,,,7h[4:1]/8,8,8,8,,,3h[4:1]/1,1,1,1,,,5h[4:1]/7,7,7,7-1[8:1],,,
2h[4:1],,,,1,1,2/8h[4:1],,,3,3,5,4h[4:1]/6,6,6,6,,,5h[2:1]/1,1,1,{2}1h[4:1],
{32}Cf`D2,A2/D3,A3/D4,A4/D5,A5/D6,A6/D7,A7/D8,A8/D1,
A1/D2,A2/D3,A3/D4,A4/D5,A5/D6,A6/D7,A7/D8,A8/D1,
A1/D2,A2/D3,A3/D4,A4/D5,A5/D6,A6/D7,A7/D8,A8/D1,
{24}1x,2x,3x,4x,5x,6x,2,3,4,5,6,7,3,4,5,6,7,8,{4}1b/5b,
{16}7,8,7,8,6,5,6,5,1,2,1,2,4-8[8:1],3,4,3,{8}4,,17,2/6-1[8:1],,4,4>6[2:3],,{1}Cf,{4},,,
{16}1b,8b,1b,8b,{6}2h[6:1],8h[6:1],6h[6:1],4h[6:1],6h[6:1],8h[6:1],
{12}2,2,4,4,6,6,{8}8,17,{32}17,26,35,4,,,,,
{16}2,1,2,1,{24}2,3,4,8,7,6,{16}1,8,1,8,{24}1,2,3,8,7,6,
4,5,4,5,4,5,3,6,3,6,3,6,2bx,7bx,2bx,7bx,2bx,7bx,1,8,1,8,1,8,
{32}1,2,3,4,1,2,3,4,8,7,6,5,8,7,6,5,2,3,4,5,1,2,3,4,7,6,5,4,8,7,6,5,
(78.8)
{4}4h[6:5]/8,,,{24},,(58.8){16}1,,,2,{4}2,
(68.8){24}3,,,,,(58.8){4}4,(48.8)5,{96}A6,E6,B5,B4,E4,{1}A3,,,,E
Re:MASTER
(88.8)
{128}8<8[16:25],1,2,,,,,,{16},,,(78.8){2},(88.8){1},{4},1-4[4:1],,(78.8)6,(68.8)8^5[20:1],
(88.8){64}1,2,3,4,{16},{8}4h[2:1],,,5,5,{4}3h[16:1]/6h[16:1],
{16}6,5,4,3,6<3>6[2:1],5,4,{4}3,{64}4,5h[64:11],,,{4},
{16}3,4,5,6,3>6<3[2:1],4,5,{4}6,{64}5,4h[64:11],,,{4},
{16}5,4,3,2,6<3>6[2:1],5,4,{4}3,{64}4,5h[64:11],,,{4},
{16}3,4,5,6h[8:1],,8,1,2h[8:1]/6b,,4,4,{32}35,26,{16}17,17,6,2,
3/5V31[8:1],5,5,5,57,7,7,7,25,{32}3,4,3,4,3,4,{16}2,1,8,7,
{16}6/4V68[8:1],4,4,4,42,2,2,2,{48}1,8,7,6,5,4,1,8,7,6,5,4,8,1,2,3,4,5,8,1,2,3,4,5,
{16}6V42[8:1],6,6,6,68,8,8,8,{32}2,4,3,5,4,6,5,7,4,6,3,5,{8}2/6h[16:1],
{32}1b,4,3,4,3,4,8b,4,3>6[8:1],4,3,4,7b,4,3,4,{16}3,,,
{64}1,8,1,8,{16}1,18,2h[32:1]/7h[32:1],,
{96}8b,7,6,5,,,,,,7b,6,5,4,,,,,,6b,5,4,3,,,{48}8,8,8,8,,,
{96}1b,2,3,4,,,,,,2b,3,4,5,,,,,,3b,4,5,6,,,{48}1,1,1,1,,,{8}8,6,
{96}6b,5,4,3,,,,,,7b,6,5,4,,,,,,8b,7,6,5,,,{48}1,1,1,1,,,
{96}4b,5,6,7,,,,,,3b,4,5,6,,,,,,2b,3,4,5,,,{48}8,8,8,8,,,
{16}7,6,{32}4,5,3,4,{16}2,5,7,4,2,6,8,1,3,5,6,4,
(78.8)8,5,6,2,4,5,(68.8)6,1^4[51.4#28:1],(58.8)2,(48.8)6,(38.8)8,
(88.8){48}8,7,6,{2}5h[2:1],{4}C,,,
{16}4>5[2:1]/5<4[2:1],36,27,,{4}A4/D5f/A5,,,{16}46,3h[16:1]/7h[16:1],,,
2b,1-5[16:1],46,{32}2,4,3,4,{16}1,6,7,7-1[16:1],4,{32}6,5,{16}6,
4/7-5[16:1],3,3,3,7/2-8[16:1],1,1,1,5/2-4[16:1],4,4,5,2-7[16:1]/6-3[16:1],7,8,1,{8}26,8,
{32}1,4,1,4,2,4,2,4,3,4,3,4,4,4,4,4,5,4,6,4,7,4,8,4,15,26,37,48,{16}1b/5b,,
57,8-4[16:1]/1,24,{32}7,5,6,5,{16}8,3,2,2-7-2[8:1]/6-3-6[8:1],17,{32}2,4,{16}35,{4}26,4b/8b,
{12}2b/A5/E6f/A6,7b/A4/E4f/A3,1b/B4/B5/E5f,{24}1,1,1,3,3,3,5,5,5,7,7,7,
{16}2-5[16:1],5-8[16:1],8-4[16:1],4-1[16:1]b,{4},
{16}7-4[16:1],4-1[16:1],1-5[16:1],5-8[16:1]b,{4},
{8}2b,1,{16}7-4[16:1]/8-3[16:1],56,34,12,{4}78,{8},1h/5h,
{48}1/5b,2,3,4,5,6,7,8,1,2,3,4,5/1b,6,7,8,1,2,3,4,5,6,7,8,
1/5b,2,3,4,5,6,7,8,1,2,3,4,5/1b,6,7,8,1,2,3,4,5,6,7,8,
1/5b,2,3,4,5,6,7,8,1,2,3,4,5/1b,6,7,8,1,2,3,4,5,6,7,8,{8}1>5[8:1]/5,26,7,8h,
{48}8/4b,{96}7,4h,{48}6,5,4,3,2,1,8,7,6,5,{48}4/8b,{96}3,8h,{48}2,1,8,7,6,5,4,3,2,1,
{48}8/4b,{96}7,4h,{48}6,5,4,3,2,1,8,7,6,5,{48}4/8b,{96}3,8h,{48}2,1,8,7,6,5,4,3,2,1,
{48}8/4b,{96}7,4h,{48}6,5,4,3,2,1,8,7,6,5,{48}4/8b,{96}3,8h,{48}2,1,8,7,6,5,4,3,2,1,
{24}85,5,5,46,,,1,1,1,28,,,
{48}1/5b,2,3,4,5,6,7,8,1,2/6b,3,4,5,6,7,8,1,2,3/6b,5,4,3,2,1,
8/4b,7,6,5,4,3,2,1,8,7/3b,6,5,4,3,2,1,8,7,6/3b,4,5,6,7,8,
1/5b,2,3,4,5,6,7,8,1,2/6b,3,4,5,6,7,8,1,2,3/6b,5,4,3,2,1,
{8}8b/Cf/A3/B3/E4,2b/Cf/A6/B6/E6,7b/Cf/A2/B2/E3,1b/Cf/B4/B5/E5,
{1}8-4[4:3],8w4[2:1],{8}7/Ch[8:1],7<3<7[8:3],8,1h[8:3],,,,,
{8}2/Ch[8:1],2>6>2[8:3],1,8h[8:3],,,,,{8}7/Ch[8:1],7>4>7[8:3],18,2h[8:3],,,,,
2/Ch[8:1],2,8/1h[16:9],8-4[44.4#32:1]b,7h[16:5],,,8bx,
(177.6)
{8}1b-4[8:1],2b,A5,7b-2[8:1],6b,A3,4b-1[8:1],5b,D8,6bV47-3[8:3],5b,B4,{4}3,1,
{8}1b-6[8:1],2b,A5,4b-1[8:1],5b,A7,6b-1[8:1],5b,A2,3b,4b-1-3[16:5]*-7-5[16:5],C,{2},
{8}2-6[8:1],2,1-5[8:1],1,8-4[8:1],8,7-3[8:1],7,6-2[8:1],6,5-1[8:1],5,4,4,35,35,
{16}2,4,2,4,3,3,3,3,{32}1,8,7,6,{16}4,4,{32}1,2,3,4,{16}8,8,{1}Cf,
2q3[2:7]/7p6[2:7],,,,{4},
1^4[16:1]/8^5[16:1],A1/D1f/A8,8^3[16:1]/7^4[16:1],A8/D8f/A7,
2^5[16:1]/1^6[16:1],A2/D2f/A1,1^4[16:1]/8^5[16:1],A1/D1f/A8,
4^1[16:1]/5^8[16:1],A4/D5f/A5,28,
{32}1,1,1,1,1,1,1,1,1,1,1,1,1,1,1,1,1,2,3,4,5,6,7,8,{4}1b/5b,
{24}1/8h,7,6,5,4,3,28,3,4,5,6,7,81,7,6,5,4,3,28,3,4,5,6,7,
8/1h,2,3,4,5,6,71,6,5,4,3,2,18,2,3,4,5,6,71,6,5,4,3,2,
1/8h,7,6,5,4,3,28,3,4,5,6,7,8/1h,2,3,4,5,6,7/1-5[8:1]b,6,5,4,3,2,
{4}1b^4[8:1]b*^6[8:1]b,1bw5[8:1]b,1b,3hb[4:1]/7b,
{32}4,5,3,2,4,5,3,2,5,6,2,1,5,6,2,1,{8}8,8,37,37,
{32}5,4,6,7,5,4,6,7,4,3,7,8,4,3,7,8,{16}1,,,28,,,{8}46,
45,4,34,4,47,4,14,4,{16}4,5,5,5,3,5,5,5,2,5,5,5,{4}1hb[4:1],
{12}8-4[1:2],7,6,7,6,7,5,7,6,7,6,7,8,7,6,7,6,7,5,7,6,7,8,6,8,,,,3,3,{4}2h[4:1]/4,
{12}1-5[1:1],2,3,2,3,2,4,2,3,2,3,2,{2}1,
{48}1b/5,26,37,48,5/1h[12:5],6,7,8,,2,3,4,5,6,7,8,,2,3,4,5,6,7,8,,2,3,4,5,6,7,8,1,2,3,4,
{24}A7/D8,E7,B6,B5,E5,A4,A3/D4,E3,B2,B1,E1,A8,A6/D6,E7,B7,B8,E1,A1,A2/D2,E3,B3,B4,E5,A5,
{16}6,6,8,8,1,1,3,3,5,5,4,4,8V62-4[8:3],1,7,2,{8}8,5,5,5hb[4:1],,
{32}1b,84,73,62,{4}5/1h[4:1],5b^8[32:3],{32}1,2,3,4,1,2,3,4,{4}5/1b^6[32:3],
{32}5,4,3,2,5,4,3,2,{4}1/5b^8[32:3],{32}1,2,3,4,1,2,3,4,{4}1b/5,
{16}8b,8b,8b,8b,{6}17,24,45,57,18,27,{24}7,5,{12}6,3,3,5,5,{8}46,28,{32}8b,7,6,5,4,,,,
2,3,4,5,6,7,8,1,2,3,4,5,1,2,3,4,7,6,5,4,3,2,1,8,
7,6,5,4,8,7,6,5,2,3,4,5,6,7,8,1,2,3,4,5,6,7,8,1,
{24}2b,7b,2b,7b,2b,7b,2,6,2,6,2,6,
{32}3,3,5,4,8,8,6,7,1,1,3,2,7,7,5,6,4,5,4,5,4,5,4,5,
46,57,68,7,8,1,{48}26,37,48,
(78.8)
{4}5/1h[6:5],,,{24},,(58.8){16}3,,,4,{4}4,
(68.8){24}E6,,,,,(58.8){4}E5,(48.8)E4,{96}D7,E7,B6,B3,E3,{1}D3,,,,E
- 追加しました。修正等ありましたらよろしくお願いします。 -- けもがみ (2024-02-27 14:02:10)
- MASTERを追加しました。 -- けもがみ (2024-03-03 19:30:23)
- MASTER、Re:MASTERのBPMを修正しました。 -- けもがみ (2024-03-10 07:28:03)
- expert作ってくださいお願い島津 -- Ggg (2025-05-21 11:08:27)
- Expaertを編集しました。 -- やあきましゅう (2026-01-04 12:29:29)
- Re:MASTER の縦連後の振り子のような配置にある極小ホールドの書き方を正確なものに変更しました。--えるすけ(2026-01-18)
- Wow -- . (2026-09-11 14:04:28)
最終更新:2026年09月11日 14:04