| BPM |
属性 |
COMMENT |
| 200 |
右 |
インド人含め右に |
属性:右
(200)
{4}4,{16}4,,,4,{8}4,4,{4},4,4,4,,
4,{16}4,,,4,{8}4,4,,4,{4}4,4,{32}4<1[8:1],3,2,1,4,3,2,1,{4}4b,
{8}2,21,3,34,2,21,{4}4^1[8:1],1b^4[8:1],4b-1[8:1],1b-4[8:1],4b,
{8}3,34,2,12,3,34,{4}1,4bv1[8:1],4b^1[4:1]*<1[4:1],,,
{8}2,21,3,34,2,21,{4}4^1[8:1],1b^4[8:1],4b-1[8:1],1b-4[8:1],4b,
{8}3,34,2,12,3,34,2,,1bv4[8:1]/2b,1b/2b,,,1b/2bv4[8:1],1b/2b,,,
1,2,{4}2v4[4:1]/4v2[4:1],,,{8}1,2,{4}1p4[4:1]/2p3[4:1],,,
2bv3[8:1],{8}1bv4[8:1],1b,2bv3[8:1],2b,1b,1b,2,3,13,,2,1,12,,
2,4,{4}2v3[4:1]/4v1[4:1],,,{8}2,1,{4}1qq3[4:1]/4pp2[4:1],,,
3bv2[8:1],{8}4bv1[8:1],4b,3bv2[8:1],3b,4b,4b,{6}3,2b/4b,2b/4b,3,1b/3b,1b/3b,
{8}24,3,{4}2v4[4:1]/4v1[4:1],,,{8}12,3,{4}1qq2[4:1]/2pp1[4:1],,,
2bv3[8:1],{8}1bv4[8:1],1b,2bv3[8:1],2b,1b,1b,2,3,13,,3,4,34,,
14,2,{4}1v4[4:1]/4v1[4:1],,,{8}34,2,{4}3q3[4:1]/4q2[4:1],,,
3bv2[8:1],{8}4bv1[8:1],4b,3bv2[8:1],3b,4b,4b,{2}1bp4[8:1]*<4[8:1],4bq1[8:1]*<1[8:1],
{4}2,{16}12,,,1,{8}1,1,12,3,{4}12,12,1bp4[8:1]*<4[8:1],1b,
{8}3,34,2,21,3,34,{4}1^4[8:1],4b^1[8:1],1b-4[8:1],4b-1[8:1],1b,
{8}2,21,3,43,2,21,{4}4,1bv4[8:1],1b^4[4:1]*<4[4:1],,,
{8}3,34,2,21,3,34,{4}1^4[8:1],4b^1[8:1],1b-4[8:1],4b-1[8:1],1b,
{8}2,21,3,43,2,21,3,,1bv4[8:1]/4bv1[8:1],1b/4b,{4},2b/3b,,
{8}1h[4:1],2,3h[4:1],2,{2}1bv3[8:1],{8}1h[4:1],2,4h[4:1],3,{2}2bq3[8:1],
{8}2h[4:1],3,4h[4:1],3,{2}2bpp3[8:1],{8}1h[4:1],2,3h[4:1],4,{2}2bV84[8:1],
{8}3h[4:1],4,2h[4:1],1,{2}4b-7-2[8:1],{8}1h[4:1],3,4h[4:1],3,{2}2bV86-4[8:1],
{8}1h[4:1],3,4h[4:1],3,2h[4:1],3,4h[4:1],3,1h[4:1],2,3,4,{2}3bv1[8:1]/4bv1[8:1],
{8}24,,3v2[8:1]/4-6^7-1[8:1],34,{2}34,{8}31,,2v3[8:1]/1-7^6-4[8:1],21,{2}21,
{4}1-3[8:1]/2,1/4-1[8:1],14,,34,{8}1p4[4:1]/2p3[4:1],12,{2}12,
{8}12,,3v2[8:1]/4v1[8:1],34,{2}34,{8}34,,1<4[4:1]/2p3[4:1],12,{2}12,
{8}12,,3-7-1[8:1]/4V62[8:1],34,{2}34,{4}3-1[8:1]/4-1[16:1],34,{8}3b/4b,3b/4b,2b/1b,2b/1b,
3b/4b,3,2,1,{4}1-3[8:1]/2-4[8:1],1b/2b,{8}1b/2b,2,3,4,{4}1p4[8:1]/2p4[8:1],1b/2b,
{8}1b/2b,2,3,4,3b/4b,3,2,1,1b/2b,3,4,3,{4}1v3[8:1]/2v4[8:1],1b/2b,
{8}1b/2b,2,3,4,{4}3V52[8:1]/4V61[8:1],3b/4b,{8}3b/4b,3,2,1,{4}2V83[8:1]/1V74[8:1],2b/1b,
{8}1b/2b,4,3,4,2b/3b,2,3,2,1b/2b,1,2,1,{4}34,2b/3b,
1/4b^1[8:1],14,4/1^4[8:1],41,1/4^1[8:1],14,4/1^4[8:1],41,
1/4b^1[8:1],14,4/1^4[8:1],41,1/4^1[8:1],14,1b/4b,,
{8}1b-4[8:1],2v3[8:1],1,2,1`1?v3[8:1],2v4[8:1],1,2,1,3,4,2,1,24,,24,
2b-4[8:1],1v4[8:1],2,1,2v4[8:1],1v3[8:1],2,1,2,2,13,2,4b,1b,,,
{4}4/1b^4[8:1],41,1/4^1[8:1],14,4/1^4[8:1],41,1/4^1[8:1],14,
{8}1b,1,1,1,{4}23,23,34,34,{32}1b,2,3,4,1,2,3,4,{8}1b,1b,
2bv4[8:1],1v3[8:1],2,1,2pp4[8:1],1pp3[8:1],2,1,2,2,13,3,24,13,,2,
3bv1[8:1],4v2[8:1],3,4,3`3?q1[8:1],4q2[8:1],3,4,3,3,24,24,1,1,1,1,
1b/2b,12,12,12,2b/3b,23,23,23,3b/4b,34,34,34,1b/2b,12,12,12,
3b,3,{12}4b,4,4,2b,2,2,{16}1b,2,3,4,{32}1b,2,3,4,3,2,1,2,3,4,3,2,1,2,3,4,
{1}1bV72[16:3]*V73[16:3]*V74[16:3]/3b,,{2}2b/3b,
{8}3h[2:3],,4,4,,2,2,,4,4,,2,2h[2:15],,1,1,,3,3,,1,1,,3,
3,,2,2,,1,1,,3,3,,2,2,,1,1,,2,2,,3,3,,1,
1p4[4:11],,2,2,,4,4,,3,3,,1,1,,3,3,,2,2,,1,1,,3,
3h[1:3]`3?q2[4:11],,2,2,,4,4,,3,3,,2,2,,3,3,,4,4,,3,3,,1,
{4}1V72[16:3]*V73[16:3]*V74[16:3],,,4V63[16:3]*V62[16:3]*V61[16:3],,,
{8}1V72[16:3],,,4V62[16:3],,,1V74[16:3],,,1b,,,
{4}4V63[16:3]*V62[16:3]*V61[16:3],,,1V72[16:3]*V73[16:3]*V74[16:3],,,
{8}12,13,23,13,,23,{4}1-6-2[16:3]/2-5-3[16:3],,,
{8}1-3[16:3],,,1-4[16:3],,,1-5^4[16:3],,,1-6^4[16:3],,,
2b,,2b/3b,2b/4b,{4}1b/3b,1bV72[16:3]*V73[16:3]*V74[16:3],1b,{1}1bv4[4:1]*v6v4[1:1],{4},,,
4V63[16:3]*V62[16:3]*V61[16:3],4b,
{8}4,13,2,34,2,13,{4}1<4[8:1],1/2bp3[8:1],2/1bV74[8:1],1/2bpp3[8:1],2/1b,
{8}2,13,3,24,1,23,{4}1,1bv4[8:1],1b^4[4:1]*<4[4:1],,,
{8}3,42,2,13,3,42,{4}4<1[8:1],4/3bq2[8:1],3/4bV61[8:1],4/3bqq2[8:1],3/4b,
{8}3,42,2,13,3,42,1,,1b-6-2[8:1]/3b-6-2[8:1],1b/3b,,,{4}1b/3b,,
1b^3[8:1]*-3[8:1],1b,1b^4[8:1]*-4[8:1],1b,1bp4[8:1]*<4[8:1],1b,1bp2[8:1]*<2[8:1],1b,
{8}1b<4[8:1],2bp3[8:1],1b,2b,1bV73[8:1],2bpp3[8:1],1b,2b,{6}1b,,
12,23,34,23,{1}1^8-2[2:1]*^7-2[2:1]*^6-3[2:1]*<5-3[2:1]/2/3/4,,,,E
- 追加しました。修正等ありましたらよろしくお願いします。 -- けもがみ (2024-03-04 22:43:23)
最終更新:2024年03月04日 22:43