BASIC
(222){1},,,,1,1,8,8b,1h[1:1],,2h[1:1],,3h[1:1],,4h[1:1]/5h[1:1],,5,5,6,6,7,7,8,1x/8x,{2}8,8,8,,7,7,7,,6,6,6,,5,5,5/4,,4,4,4,,3,3,3,,2,2,2,,1,1,1/8,,1,1,2,,3,3,4,,5,5,6,,7,7,8/1,,{1}8-5[4:3],,4-1[4:3],,8-4[4:3],,{2}3,2,1x/8x,,{1}1h[1:1]/8h[1:1],,{2}1x/8x,1x/8x,2x/7x,,
{4}1,,2,,3,3,3,,4,,5,,6,6,6,,7,,8,,{1}1x/8x,{2}1/8,1/8,2b/7b,,{4}8x,,7,,6,6,6,,4/5,,4/5,,3x,3x,3x,,2,,1,,{1}1x/8x,B1,B8,B2,B7,B3,B6,B4,B5,B3/B4,B2/B1,B7/B8,B6/B5,B3/B4/E4,,B6/B5/E6,,Cf,,,,1h[1:1]/2h[1:1],,8h[1:1]/7h[1:1],,{2}1x/8x,1x/8x,{4}2x/7x,2x/7x,2x/7x,,
{4}1,1,1,,2,2,1/2,,3,3,3,,4,4,4/5,,6,6,6,,7,7,7/8,,{2}1x/8x,1x/8x,{4}2/7,2/7,2/7,,8b,8,8/1,,7,7,7/8,,6,6,5/6,,3x,3x,3x/4x,,2,2,1,1,1/8,,1/8,,7,7,8,8,{1}1h[2:1]/8h[2:1],2b/7b,E
ADVANCED
(222){1}E5,C,E2/E8,{4}1x/8x,1x/8x,2b/7b,,{2}6h[2:1],5h[2:1],4h[2:1],3,4>1[2:1]/5<8[2:1],,Cf,,{1}B1/B8,E7,E6,E5,E4,E3,{4}1h[8:7],,,{8},8x,,1x/8x,,2x/7x,{2},{4}6,6,5/6,,3,3,4/3,,6,6,5,5,4,4,3/5,,2,2,1/2,,7,7,8/7,,2,2,1,1,1b>4[2:1]/8b<5[2:1],,,,6,6,7,7,1/8-4[2:1],,,,3,3,2,2,8/1-5[2:1],,,,6,6,7,7,1/8p4[2:1],,,,3,3,2,2,8/1q5[2:1],,,,
{4}6h[2:1],,5,,5/6,5/6,4/7,,6,7,8,1,2,3,4/5,,3h[2:1],,4,,4/3,4/3,5/2,,6h[2:1],,5,,{8}4x/5x,,,4x/5x,,,4x/5x,,{4}3h[2:1],,4,,4/3,4/3,5/2,,3,2,1,8,7,6,5/4,,6h[2:1],,5,,5/6,5/6,4/7,,1/8,2/7,3/6,4/5,{1}3b/6b,{2}B7/E8,B5/E6,{4}E4,B3,B2,,E8,B7,B6,,B3,B2,E2,,7,7,8,8,1,2,3/4,,{2}4x/5x,3x/6x,2x/7x,1x/8x,{4}2,3,4,5,{1}3/6,{2}7b/8b,1b/2b,{4}1/8,1/8,2/7,,
{4}6,5/6,3,4/3,2,1,2/8,,7,7,7/8,7/8,2,2,1/2,1/2,3,4,5,6,4x/5x,3x/6x,2x/7x,,{2}3b/4b,5b/6b,{4}4/5,4/5,3/6,,2,1/2,7,7/8,6,5,4/6,,3,3,3/4,3/4,6,6,5/6,5/6,7x/8x,1x/2x,3x/4x,5x/6x,{1}4h[2:1]/7h[2:1],6<1[2:1],2q6[2:1],7p3[2:1],{4}2,2,1/8,,{1}2>5[2:1],6<1[2:1],2q6[2:1],7<4[2:1],{2}3h[2:1],4h[2:1],5h[2:1],6,7h[2:1],8h[2:1],1h[2:1],2,3h[4:1]/4h[4:1],6h[4:1]/5h[4:1],7h[4:1]/8h[4:1],2h[4:1]/1h[4:1],3/8,1/6,{1}2/7,
{1}C,E3,E2,E1,E8,E7,Chf[1:1],,{2}1b/2b,7b/8b,{4}1/8,2/7,3/6,,3,2/4,6,7/5,8,8,1/7,,2,1/2,2,1/2,7,8/7,7,8/7,6,5,4,3,4x/5x,3x/6x,2x/7x,,{2}5b/6b,3b/4b,{4}4/5,3/6,2/7,,7,7/8,2,1/2,3,3,2/4,,6,6/5,6,6/5,3,3/4,3,3/4,1x/2x,7x/8x,5x/6x,3x/4x,{1}2h[2:1]/5h[2:1],{2}4x/6x,3x/5x,{4}4/5,3/6,2/7,1/8,2b/7b,E
EXPERT
(222){1},,,{4}1b/8b,3b/6b,4b/5b,,4h[4:1]/6h[4:1],,5h[4:1]/3h[4:1],,4h[4:1]/7h[4:1],,5h[4:1]/2h[4:1],,7h[4:1],5h[4:1],4h[4:1],2h[4:1],8<3[2:1],,,,1h[2:1],,,E3,E4,E5,E6,,8h[2:1],,,E7,E6,E5,E4,,2h[2:1],,4,5,7h[2:1],,5,4,2h[2:1],,{8}8,8,,5/7,,2/4,,1/8,,2x/7x,2x/7x,,{4}8,8,8,8/E7,8/E6,8/E5,8/E4,8/E3,1,1,1,1/E3,1/E4,1/E5,1/E6,1/E7,8,8,B6/B5,B3/B4,1,1,B3/B4,B6/B5,{8}7,7,2,2,8,8,1>8[2:1],,{4}Cf,,,,
{8}7h[4:1]/8h[4:1],,,7/8,,6/7,,5h[4:1]/6h[4:1],,,4h[4:1]/5h[4:1],,,3/4,,,2h[4:1]/1h[4:1],,,2/1,,3/2,,4h[4:1]/3h[4:1],,,5h[4:1]/4h[4:1],,,6/5,,,7h[4:1]/8h[4:1],,,7/8,,6/7,,5h[4:1]/6h[4:1],,,4h[4:1]/5h[4:1],,,3/4,,,2h[4:1]/1h[4:1],,,2/1,,3/2,,4h[4:1]/3h[4:1],,,2hx[4:1]/5hx[4:1],,,7hx[4:1]/4hx[4:1],,,{16}8,,,,8,,E3,B3,B4,,,,6,,6,,5,,7,,1,,1,,8h[4:1],,,,1,,,,{4}6/7,4/5,2/3,1/8,{8}7,7,8,6,3,3,4/2<7[8:1],,5,,6>3[8:1],,1,,2,2,4,1,6,6,5,7,3<6[8:1],,,,7>2[8:1],,,,3,,2h[4:1]/4h[4:1],,,3h[4:1]/5h[4:1],,,2/6,,{16}1,,,,1,,E7,B6,B5,,,,3,,3,,4,,2,,8,,8,,1h[4:1],,,,8,,,,{4}3/2,5/4,7/6,8/1,{8}2,2,1,3,6,6,5,7,5/7,,3<6[8:1],,,,7,7,5,8,3,3,4,2,6>3[8:1],,,,1,1,,6,6<5[2:1],,Cf,,,,8x,,,,
{4}6-3[8:1],1,1,1,3-6[8:1],8,8,8,6-3[8:1],1,1,1,1/8,4/5,2/7,,3-6[8:1],8,7-2[8:1],4,3-6[8:1],8,7-2[8:1],4,4h[4:1],,5h[4:1]/6h[4:1],,7h[4:1]/8h[4:1],,1h[4:1]/2h[4:1],,3h[4:1]/4h[4:1],,5/6,5-2[8:1]/6-1[8:1],{1},
{4}1b/8b,3/4,8b/1b,6/5,1b/8b,2b/4b,7b/5b,5>1[4:1]/7,6,4<8[4:1],3,5>1[4:1],6,4<8[4:1],3,5,4/6,1,3/5,8-6[8:1],2-4[8:1],5-1[8:1],3h[4:1],8-3[8:1]*-5[8:1],,4-7[8:1]*-1[8:1],,8h[4:1],1b,5b/7b,4b-7[8:1]/2b-5[8:1],,8h[4:3],,1h[4:1],,{12}4,5,4,5,4,5,4,,,3/6,,,7,,7,5,,5,4,,4,2,,2,4,,4,5,,5,7,,7,1,,,{4}2/5,6,3/7,2,1b/8b,5b/7b,2b/4b,1-5[8:1]/8-6[8:1],,8-4[8:1]/1-3[8:1],,1>8[4:3]/8<1[4:3],,,,,
{12}8h[1:2]/1,,,,,,5,,,4,,3,3,,5,5,,,4,,,,,,1h[1:2],,,,,,4,,,5,,6,6,,4,4,,,5,,,,,,8h[1:2],,,,,,5,,,4,,3,3,,5,5,,,4,,,,,,1h[2:3],,,,,,4,,,5,,6,6,,4,4,,,5,,,3/7,,,{4}4h[4:1]/6h[4:1],,5h[4:1]/3h[4:1],,4/6h[4:1],4,5/3h[4:1],6,4h[4:1]/7h[4:1],,5h[4:1]/2h[4:1],,4/7h[4:1],3,2h[4:1]/5,6,4/7,3/6,2/5,6/3,7/4,3/5,1/4,6/4,8x/5x,,2x/5x,,1x/8x,,,,
{2}E4,E5,E6,,E6,E5,E4,3h[2:3],E4,E5,E6,6h[2:1],B5/B4/Chf[2:1],,{4}1x/8x,2x/7x,3x/6x,,
{4}5h[4:1]/7h[4:1],,4h[4:1]/2h[4:1],,1b/8b,5b/7b,4b/2h[4:1],1<5[4:1],3,8>4[4:1],6,1<5[4:1],3,8>4[4:1],6,1,3/5,8,6/4,1-3[8:1],7-5[8:1],4-8[8:1],6h[4:1],1-6[8:1]*-4[8:1],,5-2[8:1]*-8[8:1],,1h[4:1],8b,4b/2b,5b-2[8:1]/7b-4[8:1],,1h[4:3],,8h[4:1],,{12}5,4,5,4,5,4,5,,,2/7,,,3,,3,1,,1,8,,8,6,,6,8,,8,1,,1,3,,3,6,,,{4}7/4,3,6/2,7,8b/1b,4b/2b,7b/5b,8-4[8:1]/1-3[8:1],,1-5[8:1]/8-6[8:1],,8<1[4:3]/1>8[4:3],,,,,1h[4:1]/8h[4:1],,4h[4:1]/5h[4:1],,3b/6b,1b/8b,4b/5b,2b-5[8:1]/7b-4[8:1],E
MASTER
(222)
{2}4h[4:1],4h[4:1],4h[4:1]/5,4h[4:1]/5,4h[4:1]/B5,4h[4:1]/B5,
{4}6x-4[8:1],2x-5[8:1],8b,
{12}7x,6x,5x,
{4}1x,
{12}2x,3x,4x,
{4}8x,
{12}6x,5x,4x,
{4}1x,
{12}E3,E4,E5,
{4}8x,
{12}E7,E6,E5,
{4}1x,
{12}7,6,5,3,2,1,7,6,5,
{1}4xh[1:1]/8,Cf,,
{24}3/6h[2:1],4,5h[12:5],,,,
{4},,,
{24}6/3h[2:1],5,4h[12:5],,,,
{4},,,
{24}6h[2:1]/B3,B4,B5,,,,
{4},,,
{24}3h[2:1]/B6,B5,B4,,,,
{4},,,
{24}7h[4:3]/B4,B5,B6,,,,
{4},,
{8}5,5-3[8:1]*-7[8:1],,5x,,2x/8x,,1,2xqq5[8:5]/8x,,
{4}6b,6,6,7^2[4:1],5,3^6[4:1],1,8,7h[4:1],
{8}5,5,
{4}6h[4:1],2,3h[4:1]/5,
{12}4,3,5,
{4}2^5[4:1],5,
{8}6x,6,5,6,4,4,5,4,6,6,4,5,2,2,6,6,
{16}3,5,3,5,3,5,3,5,4,6,4,6,4,6,4,6,
{2}Cf,
{4},27,
{8}3h[4:1]/6,,6,3,4,3,5,3,4h[4:1],,2,2^4[8:1],,4,,6,
3/6h[4:1],,4,6,5,6,3,6,5h[4:1],,7,7^5[8:1],,5,,3,
3h[4:1]/6,,4,3,5,3,4,3,1h[4:1],,2,2^4[8:1],,4,,5,
3/6h[4:1],,4,6,5,6,7,6^3[4:1],,,B4/B5/C,,1x,2x/8x,,,
4/7h[4:1],,4,6,2/5h[4:1],,2,6,4-2[8:1],4,5,6,7^1[8:1],,1,2,
3h[4:1],,4h[4:1],,3,4,2^4[8:1],,7,7,5,5,6-8[8:1],6,4,,
1x/2q6[8:1],,8,8,7h[4:1],,5,4,6-4[8:1],6,4,3,7-3[8:1],7,3,2,
4,,34,5,6h[4:1],,5-1[8:1],,7b,,28,3/7b^4[8:1],,8,1b,,
2h[4:1]/5,,5,3,4h[4:1]/7,,7,3,5-7[8:1],5,4,3,2^8[8:1],,8,7,
6h[4:1],,5h[4:1],,6,5,7h[4:1],,5-3[8:1],5,7,6,5-7[8:1],5,2,2,
2/8x,,7,7,7/3^5[8:1],,6,6,6^8[8:1],4,4,3,2^4[8:1],8,8,7,7h[4:1],,5,6,4^2[8:1],4q8[8:1],,,
{2}1b,3b/7b,
{4}45,
{12}E4,B4,B6,
{4}E7,2h[1:1],B3/E4,C,E6/B6,7h[1:1],E7/B7,E5,B2/E3,1,4x/E7/B7,5x/B2/E3,8b/C,,
17,
{12}E3,B3,B5,
{4}E6,4/7h[1:1],B6/E7,E1/B1,E3/B3,E5/B5,2x/8x,
{12}E4,B4,B6,
{4}1x,
{12}E6,B5,B3,
{4}8x,
{12}E4,B4,B6,
{4}1x,1x/8x,3x/6x,
{12}2,4,3,7,5,6,3,5,4,
{4}8h[4:3],,,1-5[8:1],
1/7b,8-4[8:1],8/2b,1-5[8:1],7/1b^6[8:1],1b^4[8:1],1b,
{12}6h[6:1],,5,
{4}7-4[8:1],2-8[8:1]/7,
{12}2^4[8:1],,5,2qq5[8:3],,6h[3:1],
{2}2,
{12}6,,6,5,,3,
{4}4,
{12}1/7-5[8:1],,4,7-1[8:1],,2,
{4}7-4[8:1],7/4<8[4:1],
{12}1,2,3,
{4}4V28[4:1],8<8[2:1],4b,,C,8/1-5[8:1],
{12}1b-7[8:1],,6,1b^3[8:1],,4,
{4}1b,8-4[8:1]*-5[8:1],8b,1-5[8:1]*-4[8:1],1b,27,
{12}3,5,4,7,5,6,1,3,2,
{4}8-4[8:1],8^3[8:1]/4^6[8:1],8-4[8:1],
{12}8^6[8:1],,1,8qq3[8:3],,2h[3:1],
{2}8,
{12}2,,2,7-1[12:1],,1,
{4}7^4[8:1],
{12}47,,2,1,,38,
{4}8/3^1[8:1],3b/4b^7[8:1],4b/8xw4[8:1],8b,2x/6x,3/5V71[4:1],1>5[4:1],5<1[4:1],1s5[2:1],Cf,,,,
{12}45,,4h[4:1]/5,,,5h[3:1],3h[4:1],,,,,,35,,2q6[4:1]/6,,,8h[4:1],,,,8,,,
56,,5/6h[4:1],,,5h[3:1],7h[4:1],,,,,,57,,4/8p4[4:1],,,2h[4:1],,,,2,,,
12,,1/2h[4:1],,,1h[3:1],3h[4:1],,,,,,13,,4p8[4:1]/8,,,6h[4:1],,,,6,,,
17,,1/7^4[4:1],,,3,3h[3:2],,,,,,4h[6:1],,,,,5,25,,,4h[4:1]/7-5[12:1],,,
7x,,,3,5,1,7h[4:1],,,1,5,3,1h[4:1],,,3,7,1,5,2,6,4,8,2,
4h[4:1],,,3,7,5,1h[4:1],,,5,7,3,5h[4:1],,,4,6,2,8,4,6,2,8,4,
1h[4:1],,,3,7,1,5h[4:1],,,1,7,3,1h[4:1],,,2,6,8,4,2,8,4,6,2,
{2}4h[4:1],3h[4:1]/B5,2V48[2:1]/Ch[1:1],,
{1}8b-4[4:11],,,,
{2}3h[1:2],B4,C,B8,8h[4:3],,
{4}7x/B3/E4,2x/E6/B6,8x/B2/E3,8-4[8:1],
8x^3[8:1]/4^6[8:1],8-4[8:1],8x^3[8:1]/4^6[8:1],8-4[8:1],8b^3[8:1],8b^5[8:1],8b,
{12}4,,4,
{4}7-4[8:1],17,
{12}2^4[8:1]/5,,1,2qq5[2:1],,6h[3:1],
{2}2,
{12}6,,6,5,,2,
{4}4,
{12}1/7-5[8:1],,5,7-1[8:1],,3,
{4}7-4[8:1],7/4<1[4:1],
{12}2,3,4,
{4}5V31[4:1],1V75[4:1],5b>5[2:1],,C,8-4[8:1],
{12}8b-2[8:1],,3,8b^6[8:1],,5,
{4}8b,1-5[8:1]*v4[8:1],1b,8v5[8:1]*-4[8:1],8b,27,
{12}6,4,5,1,4,3,8,5,6,
{4}1-5[8:1],1x^6[8:1]/5^3[8:1],1-5[8:1],
{12}1^3[8:1],,6,1pp6[8:3],,8h[3:1],
{2}1,
{12}7,,7,5,,34,
{4}5/2-5[8:1],
{12}7/2-8[8:1],,8,2,,6,
{4}4^2[8:1],4b^7[8:1]/7x,4b/8xw4[8:1],8b,1x/7x,2h[4:1]/6x,
{12}7,3,1,5h[4:1],,,1-5[8:1],3,7,1b,,,6,4,5,3,7,1,
{4}2x/8x,
5x-1[8:1]/7x-3[8:1],
{24}57,B7,C,B3,,,
{4}4x-8[8:1]/2x-6[8:1],
{24}42,B2,C,B6,,,
{4}1b/7b,
{24}E7,E6,E5,E4,E3,E2,E1,E8,7x,6x,5x,4x,3x,2x,1x,8x,7x,6x,5b/Cf,E
Re:MASTER
- EXPERT譜面を追加しました。修正等ありましたらよろしくお願いします。 -- Sugar (2026-02-10 10:27:17)
- MASTER譜面のノーツの配置ミス、SLIDEの速度の修正を行いました。 -- けもがみ (2026-03-11 00:32:52)
- BASIC譜面とADVANCED譜面を追加しました。修正等ありましたらよろしくお願いします。 -- Sugar (2026-07-02 23:30:25)
最終更新:2026年07月02日 23:30