アットウィキロゴ

[逆]KING is BACK!!

BPM 属性 COMMENT
176 逆 お前がBACKするんかーーーい!!

属性:逆

(176)
{4}34,3$/4$/7?-4[4:1]/8?-3[4:1],{2},{4}65,6$/5$/2?-5[4:1]/1?-6[4:1],{2},
{4}34,3$/4$/7?-4[4:1]/8?-3[4:1],{2},{4}65,6$/5$/2?-5[4:1]/1?-6[4:1],{2},
{4}78,7$/8$/3?-8[4:1]/4?-7[4:1],{2},{4}21,2$/1$/6?-1[4:1]/5?-2[4:1],{2},
{4}78,7$/8$/3?-8[4:1]/4?-7[4:1],{2},{4}1$/8$/4?qq1[8:3]/5?pp8[8:3],,,2b/7b,

{8}56,7,8,{4}1$`6?^1[8:1],6/1$`6?>1[4:1],6,{16}7,,18,,12,12,,78,{8}7h[4:1]/8h[4:1],,,
43,2,1,{4}8$`3?^8[8:1],3/8$`5?^8[8:1],{16}5,,1,2,3,8,7,6,2,3,4,7,6,5,{8}1b,,
56,7,8,{4}1$`6?^1[8:1],6/1$`6?>1[4:1],6,{16}7,,18,,12,12,,78,{8}7h[4:1]/8h[4:1],,,
43,2,1,{4}8$`3?^8[8:1],3/8$`5?^8[8:1],{16}5,,1,2,3,8,7,6,2,3,4,7,6,5,1,2,3,4,

{8}1$`6?-1[8:1],3,6,3,1$`6?-1[8:1],3,6,3,7/8$`3?-8[8:1],6,3,6,8$`3?-8[8:1],6,3,6,
{4}2b$/6b$/1?-6[8:1]/5?-2[8:1],1b/5b,3b/7b,,{16}2,4,3,5,4,6,5,7,{8}18,27,,,
8$`3?-8[8:1],6,3,6,8$`3?-8[8:1],6,3,6,2/1$`6?-1[8:1],3,6,3,1$`6?-1[8:1],3,6,3,
{4}7b$/3b$/8?-3[8:1]/4?-7[8:1],8b/4b,6b/2b,,{16}7,5,6,4,5,3,4,2,{8}81,7b/2b,,{16}4,5,{8}6b/3b,,

3,25,1,83,7,61,5$`8?^5[8:1],4$`1?^4[8:1],8,{4}1,1b$/8b$/4?q1[8:1]/5?p8[8:1],4b/5b,
{8}37,2$`6?-2[8:1],6$`2?-6[8:1],2,8,,45,,62,7$`3?-7[8:1],3$`7?-3[8:1],7,1,2,36,1b/8b,
{16}7,8,7,1,7,,26,,1,8,1,7,1,,26,,8,1,8,2,8,,73,,2,1,2,8,2,,73,,
2,6,3,7,4,8,5,1,4,8,3,7,2,6,{8}15,26,37,48,,,

1$/2$/5?-1[8:1]*-2[8:1],3,5b,,8$/7$/4?-8[8:1]*-7[8:1],6,4b,,
1$/2$/5?-1[8:1]*-2[8:1],3,5b,,8$/7$/4?-8[8:1]*-7[8:1],6,4b,,
1$/2$/5?-1[8:1]*-2[8:1],3,5b,,8$/7$/4?-8[8:1]*-7[8:1],6,4b,,56,8,34,1,56,8,34,1,
7$/8$/3?-7[8:1]*-8[8:1],6,3b,,2$/1$/6?-2[8:1]*-1[8:1],3,6b,,
7$/8$/3?-7[8:1]*-8[8:1],6,3b,,2$/1$/6?-2[8:1]*-1[8:1],3,6b,,
7$/8$/3?-7[8:1]*-8[8:1],6,3b,,2$/1$/6?-2[8:1]*-1[8:1],3,6b,,
78,61,{16}7,8,6,1,5,2,{8}4h[4:1],,1,{32}1,2,3,4,5,6,7,8,

{8}1b$`5?-1[8:1],6,5,7,8$`4?-8[8:1],3,4,2,1$`6?-1[8:1],5,6,7,8$`3?-8[8:1],4,3,2,6h[4:1]/1,,
4h[8:1],3h[8:1],2h[8:1],1h[8:1],8h[8:1],7,{16}2,8,4,6,1,7,3,5,2,8,4,6,{32}1,2,3,4,5,6,7,8,
{8}1b$`5?-1[8:1],6,5,7,8$`4?-8[8:1],3,4,2,1$`6?-1[8:1],5,6,7,8$`3?-8[8:1],4,3,2,
{16}1,5,3,7,2,6,4,8,3,7,1,5,4,8,2,6,{4}1b$/8b$/4?^1[8:1]/5?^8[8:1],4b/5b,2b/7b,45,

{8}3,2,1,{4}7/8$`4?-8[8:1],4/8$`5?>8[4:1],5,{16}2,,18,,6,6,,3,{8}3h[4:1],,,
6,7,8,{4}2/1$`5?-1[8:1],5/1$`4?^1[8:1],{16}4,,8,7,6,1,2,3,7,6,5,2,3,4,{8}8b,,
43,2,1,{4}7/8$`4?-8[8:1],4/8$`5?>8[4:1],5,{16}2,,18,,6,6,,3,{8}3h[4:1],,,
56,7,8,{4}2/1$`5?-1[8:1],5/1$`4?^1[8:1],{16}4,,8,7,6,1,2,3,7,6,5,2,3,4,8,7,6,5,

{4}34,34,25,,56,56,{8}47,5$/6$/1?-5[8:1]*-6[8:1],,1b,,
28,3$`7?-3[8:1],7$`3?-7[8:1],3,1,,45,,71,6$`2?-6[8:1],2$`6?-2[8:1],6,8,1,27,4b/5b,
{16}2,1,2,8,3,,74,,8,1,8,2,7,,63,,1,8,1,7,2,,36,,7,8,7,1,6,,25,,
7,3,6,2,5,1,4,8,5,1,6,2,7,3,{8}84,73,62,51,,,

7$/8$/3?-8[8:1]/4?-7[8:1],16,3b/4b,,2$/1$/6?-1[8:1]/5?-2[8:1],83,6b/5b,,
7$/8$/3?-8[8:1]/4?-7[8:1],16,3b/4b,,2$/1$/6?-1[8:1]/5?-2[8:1],83,6b/5b,,
7$/8$/3?-8[8:1]/4?-7[8:1],16,3b/4b,,2$/1$/6?-1[8:1]/5?-2[8:1],83,6b/5b,,35,1,64,8,35,1,64,8,
2$/1$/6?-2[8:1]/5?-1[8:1],83,6b/5b,,7$/8$/3?-7[8:1]/4?-8[8:1],16,3b/4b,,
2$/1$/6?-2[8:1]/5?-1[8:1],83,6b/5b,,7$/8$/3?-7[8:1]/4?-8[8:1],16,3b/4b,,
2$/1$/6?-2[8:1]/5?-1[8:1],83,6b/5b,,7$/8$/3?-7[8:1]/4?-8[8:1],16,3b/4b,,
21,38,{16}2,1,3,8,4,7,{8}5h[4:1],,8,{32}8,7,6,5,4,3,2,1,

{8}8b$`4?-8[8:1],6,4,2,1$`5?-1[8:1],3,5,7,8$`3?-8[8:1],6,3,2,1$`6?-1[8:1],3,6,7,3h[4:1]/8,,
5h[8:1],6h[8:1],7h[8:1],8h[8:1],1h[8:1],2,{16}7,1,5,3,8,2,6,4,7,1,5,3,{32}8,7,6,5,4,3,2,1,
{8}8b$`4?-8[8:1],6,4,2,1$`5?-1[8:1],3,5,7,8$`3?-8[8:1],6,3,2,1$`6?-1[8:1],3,6,7,
{16}8,4,6,2,7,3,5,1,6,2,8,4,5,1,7,3,{4}8b$/1b$/5?^8[8:1]/4?^1[8:1],5b/4b,7b/2b,54,

{8}57,24,78,{4}1$`6?^1[8:1],6/1$`6?>1[4:1],6,{16}7,,18,,43,43,,65,{8}6h[4:1]/5h[4:1],,,
42,75,21,{4}8$`3?^8[8:1],3/8$`5?^8[8:1],{16}5,,1,2,3,48,7,6,51,2,3,48,7,6,{8}5b/1b,,
57,24,78,{4}2/1$`5?-1[8:1],5/1$`4?<1[4:1],4,{16}7,,81,,34,34,,56,{8}5h[4:1]/6h[4:1],,,
42,75,21,{4}7/8$`4?-8[8:1],4/8$`5?^8[8:1],{16}5,,1b,2,3,4/8b,7,6,5/1b,2,3,4/8b,7,6,5/1b,2,3,4,
{4}5b$/1b$/6?-1[8:1]/2?-5[8:1],6b/2b,4b/8b,{1}1b$/2b$/5?>6[1:3]/6?<5[1:3],,,,E

  • 追加しました。修正等ありましたらよろしくお願いします。 -- けもがみ (2024-03-07 05:35:18)
名前:
コメント:

タグ:

+ タグ編集
  • タグ:
最終更新:2024年03月07日 05:35