アットウィキロゴ

WE'RE BACK!!

アーティスト Zekk

BPM BASIC ADVANCED EXPERT MASTER Re:MASTER
185 4 8 12 14 -

EXPERT MASTER Re:MASTER
譜面制作者 鳩ホルダー Luxizhel -

BASIC


ADVANCED


EXPERT


MASTER

(185)
{8}34,3,56,6,{16}1,8,1,,{4}27,35,46,57,A8/E8,64,53,42,A1/E2,25,36,47,D1/E1,
{8}57,6,35,4,{4}5-1[8:1]/6,57,{8}8,8,7,7,6,6,5,5,4,4,3,3,2,2,1,1,7,7,5,5,3,3,1,1,
{16}7,8,7,8,{8}7,16,{4}1p5[8:1]*q5[8:1]/6,1b,

2h[8:1]/8h[8:1],3h[8:1]/4h[8:1],5h[8:1]/6h[8:1],{8}6,5,
{4}3h[8:1]/4h[8:1],2h[8:1]/3h[8:1],1h[8:1]/2h[8:1],{8}3,4,
{4}5h[8:1]/6h[8:1],7h[8:1]/8h[8:1],{8}12,3,45,6,
{4}7h[8:1]/8h[8:1],7h[8:1]/6h[8:1],6h[8:1]/5h[8:1],4b/5b,
4h[8:1]/6h[8:1],1h[8:1]/2h[8:1],7h[8:1]/8h[8:1],{8}7,8,
{4}1h[8:1]/2h[8:1],2h[8:1]/3h[8:1],3h[8:1]/4h[8:1],{8}5,5,
{4}4h[8:1]/6h[8:1],4h[8:1]/2h[8:1],2h[8:1]/8h[8:1],8h[8:1]/6h[8:1],{1}4qq1[2:1]/6pp1[2:1],

8/2pp5[2:1],{4}7h[4:3]/4,A5/B5,D7/E7,A8/B8,{1}1/7qq4[2:1],{4}2h[4:3]/5,D4/E4,D3/E3,E2/D2,
{1}8/3pp8[2:1],{4}{4}7h[4:3]/1,A8/B8,D7/E7,A5/B5,{1}1q4[2:1]/7p4[2:1],{4}2h[2:1]/5,3,Cf,,
6h[4:1],5,{8},7,{4}57,7h[4:1],5,{8},6,{4}56,3h[4:1],4,{8},2,{4}24,2h[4:1],4,{8},3,24,,
24,3,3,3,75,6,6,6,14,2,3,4,58,7,6,5,4,4,35,35,26,26,17,17,{16}8,8,8,8,{8}8,17,{4}2-5[8:1]/6-1[8:1],2x/6x,

{8}34,2,56,7,12,3,78,6,15,{16}2<4[4:1],4,{8}3,28,,8x,7,6,54,3,21,8,73,{16}6,5,,3,{8}4,
7-4[8:1],4,7-1[8:1],2,7-3[8:1],5,7b,,25,{16}3,4,3,,6,6,5,,3,4,2,5,{8}1,
6/8-4[8:1],2-6[8:1],8b,2b,,7,64,53,42,1,57,8,{16}2,1,3,8,4,7,5,6,
{8}5-3[8:1],5,7-1[8:1],7,6-2[8:1],6,7b,,1q5[8:1],8,1/7-3[8:1],,7,{16},4h[16:3],,,{8}8,
7V53[16:3]/3,2,1-5[8:1]/7,,{16}1,,,4h[16:3],,,{8}1,2V46[16:3]/6,7,8-4[8:1]/2,,{16}8,,,5h[16:3],,,{8}8,
37,26,{16}1,8,,,4-8[8:1]/7,,3,5,{8}4b,,7-4[8:1]/1,2,{4}7/3-8[8:1],3/5-1[8:1],51,
{8}28,37,{16}6pp4[8:3],5,{8}6,,4,3,2,15,6,47,3,{16}8b,2,7,2,6,2,5,2q3[16:5],{8}4,,5,6,7,,4b/8b,,

{4}2h[8:1]/4h[8:1],7h[8:1]/5h[8:1],{16}2h[8:1]/8h[8:1],,,4h[8:1]/6h[8:1],,,{8}37,
3-1[8:1]/7,,3/8V62[4:1],,1x,3,5,,38,{16}2,1,,4,5,,61,,7,8,,5,4,,{12}37,37,37,26,26,26,{2}2-4[8:1]/6-8[8:1],
{4}7h[8:1]/5h[8:1],2h[8:1]/4h[8:1],{16}7h[8:1]/1h[8:1],,,4h[8:1]/6h[8:1],,,{8}37,
{4}1^4[8:1]/5^8[8:1],1-6[8:1]/5-2[8:1],15,,{16}26,,3,4,,2,1,,28,,6,5,,7,8,,
{8}7/1-5[8:1],2,31,,{16}3,4,2,,{4}1b/7b,

{1}4>5[4:7]/5,,4>5[4:7]b,,4>8[2:1],7<3[2:1],2qq5[4:3],{8}B6,E6,B3,E4,E8,E2,E1,,
{4}3V17[2:1]/5,5,5,5,8V24[2:1]b/6,6,6,6,4>6[2:1]/5,5,5,5,5V71-3[2:1]b/4,4,4,4,
{8}84,8,74,7,64,6,54,5,45,4,35,3,25,2,15,1,{16}1,8,2,7,3,6,4,5,4,5,3,6,2,7,1,8,
1-3[8:1],1,1-7[8:1],1,{4}1-5[8:1]b,,3b-8[8:1]/7b-4[8:1],37,

{16}15,,3,4,2,,6,5,7,4,8,,{4}3-5[8:1]/7-1[8:1],7/3V15[4:1],36,{8}6,7,
84,{16}6,5,7,,3,4,2,5,{8}1,26,37,{4}4p8[8:1]/8p4[8:1],4^7[8:1]/8^3[8:1],4x/8x,2b/6b,
{8}6/4p8[8:1],3,4/7v4[8:1],6,7/3^8[8:1],2,35,5,6,78,25,{16}3-8[8:1],4,,5,{8}3,7,6V85[8:3]/1,
{4}6/1-4[4:1],,,45,{16}45,,2,4,,7,5,,1,8,{8}1,3b/6b,,
35,78,1-5[8:1]/6,4-7[8:1],1,4,2^8[8:1],8,{4}2^4[8:1]/6^8[8:1],2V84[4:1]/6,26,{8}7,6,
5,21,8-4[8:1]/3,5-2[8:1],8,5,7^1[8:1],1,{4}7^5[8:1]/3^1[8:1],7-2[8:1]b/3,7b-4[8:1]/4b,7b/1b,
{8}3/4x,8,56,1,34,8,75,3,2/4-8[8:1],5,4/1-6[8:1],2,1/4q8[8:1],5,34,2,
{4}7xqq1[2:1]/1h[8:1],2h[8:1],3h[8:1],4h[8:1],{16}45,,3,4,,6,5,,3,4,,18,{4}27,

{16}36,,4,5,4,5,4,5,4,5,6,7,{4}8b/4b,{16}26,,7,8,6,1,5,2,4h[8:1],,3,4,,6,5,,
2,1,2,1,3,8,3,8,3,4,5,6,7,8,1,2,{8}37,37,{4}2-4[8:1]/6-8[8:1],26,37,
{16}26,,1,5,2,6,3,7,4,3,2,1,{4}7h[8:1]/8h[8:1],{16}26,,7,8,6,8,5,8,4,3,2,1,8,7,26,,
15,2,3,4,5,6,7,8,1,2,8,7,2,3,7,6,{4}4-2[8:1]/5-7[8:1],4-8[8:1]/5-1[8:1],45,3b/6b,
2h[4:3]/4,4,5,{16}5,,6,6,{4}5/7h[4:3],5,4,3,{16}25,,7,8,7,,2,1,3,8,4,7,5,6,5,,
47,,3,4,3,,68,,1,5,1,5,{4}2-5-2[4:1]/6-1-6[4:1],{1}26,,,,E

Re:MASTER


  • 追加しました。修正等ありましたらよろしくお願いします。 -- けもがみ (2024-03-09 06:14:44)
名前:
コメント:

タグ:

+ タグ編集
  • タグ:
最終更新:2026年05月24日 05:48