BASIC
ADVANCED
EXPERT
MASTER
(207)
{4}3b/6b,{16}5,4,5,4,5,,,46,,,{8}3h[4:1]/5,,4,{4}4,1v4[8:1]/7v4[8:1],,
3-1[8:1]/5,{8}6,7,8-6[8:1],,4,3,{4}2-6[8:1],5,{8}57,8,1,2,
3/4-8[8:1],,1,,17,6,5,4,{4}3/2-6[8:1],8,5/7-3[8:1],1,
2-8[8:1]/4,{8}5,6,7-5[8:1],,3,2,1-3[8:1],,5,6,7,8,
{4}1/2-6[8:1],7-4[8:1],5,{8}3,4,3,25,,47,47,,{16}6,5,6,5,{4}6,
4/5-7[8:1],{8}3,2,1-3[8:1],,5,6,7-3[8:1],,4-6[8:1],,2,1,8,7,
{4}6/5-1[8:1],8-6[8:1],{8}2,3,4,5,{4}6/7-3[8:1],1,2-6[8:1]/4,8,
5/7-1[8:1],{8}4,3,2-4[8:1],,6,7,{4}8-4[8:1]/2-6[8:1],8b/2b,,,
4h[1:2]/7,{8}6,6,6,,5,5,5,,3,3,{4}3,5,6h[1:2],{8}5,5,{4}5,7,8,1,2,3,
4h[1:2],{8}6,6,6,,5,5,{4}5,3,2,1,8h[4:3],3,2,1,{8}78,78,6,45,45,3,{4}12,
3^6[4:1],6^3[4:1],7,{8}8,8,{4}2^7[4:1],7^2[4:1],6,{8}5,5,
{4}4/3h[4:1],1h[4:1],2,5h[4:1]/6,7^2[4:1],2^7[4:1]b,3,4,
56,{8}3,4,25,,6,5,{4}47,34,57,18,3/4-1[8:1],3-8[8:1],7,{8}7,
{4}7-4[8:1],8-5[8:1],6,{8}46,{4}46,3b/7b,{16}E2/B2,,E7,B6,B5,,E3,B3,B4,,E8/B7,,
{2}Ch[8:3],{8},18,{4}18,35,35,34,34,46,46,56,
{16}56,,3,4,{8}3,25,25,{16}3,4,3,,,57,,,46,,3,4,3,,,25,,,{4}47,
2-5[8:1]/6-1[8:1],2b/6b,4^1[8:1]/8^5[8:1],8/4-8[8:1],4/2V46[8:1],2/7-3[8:1],71,
{16}24,,,5,{8}4,56,5/6-2[8:1],,5,4,{16}31,,,8,{8}1,78,
{4}7/8^3[8:1],8^5[8:1],8-4[8:1],8w4[8:1],8,26,4/8^5[8:1],3,2^5[8:1],6,7-3[8:1],3,
{8}24,{4}2/4q5[8:3]*>5[8:3],4,,{8},75,{4}7/5p4[8:3]*<4[8:3],5,{8},,,
{4}2/4<8[4:1],8>4[4:1],4q8[4:1],8q4[4:1],2-6[8:1],2,
{16}57,,,4,{8}5,34,3-7[8:1]/4,,4,5,{16}68,,,1,{8}8,12,
{4}1-5[8:1]/2,2-6[8:1],4^7[8:1],8-3[8:1]*-5[8:1],8b,,
2^5[8:1],27,8^5[8:1],85,4^1[8:1],46,7-4[8:1]/8,7/8-3[8:1],58,
5-1[8:1]/7-3[8:1],57,24,2-6[8:1]/8-4[8:1],2/8<1[2:1],8b/Cf,,,
28,3/7-3[8:1],4-6[8:1],{8}2,1,8,7,6/5-1[8:1],,8-6[8:1],,2,3,4,5,{4}6/7-3[8:1],1,4/2-6[8:1],8,
5/7-1[8:1],{8}4,3,2-4[8:1],,6,7,8-6[8:1],,4,3,2,1,{4}8/7-3[8:1],2-5[8:1],4,{8}6,5,6,
47,,25,25,,{16}3,4,3,4,3,4,3,4,{4}2h[4:1],{16}5,,7,8,{8}7h[4:1],,3,3h[4:1],,{16}5,4,5,,36,,
{12}2,4,3,7,5,6,{8}45,45,{16}3,4,,6,5,,47,,6,5,6,,54,3,2,1,5,6,7,8,{4}13,26,
{12}3,4,2,6,5,7,3,4,2,6,5,7,{4}4-1[8:1],4/8-5[8:1],8/2-7[8:1],2/6-3[8:1],
6b/1h[4:3],,,{8},2h[4:1]/4h[4:1],,,{4}24,6/1-5[8:1],
1b/8h[4:3],,,{8},5h[4:1]/7h[4:1],,,{4}5/8-4[8:1],38,
1-6[8:1],4-7[8:1],5-2[8:1],8-3[8:1],1-6[8:1],4-7[8:1],5-2[8:1],7,
1h[4:1]/8h[4:1],{8},24,2h[4:1]/4h[4:1],,,68,6h[4:1]/8h[4:1],,,5h[8:3]/4,,4,{4}4,
3/8V64[4:1],2,1V75[4:1],3,2V86[4:1],4,3,6/1V35[4:1],7,8V24[4:1],6,7V13[4:1],5,6,
47,3h[8:1]/5,3h[8:1]/5,3h[8:1]/4,3h[8:1]/4,6h[8:1]/4,6h[8:1]/4,6h[8:1]/5,
{16}65,,7,8,{8}7,35,35,{16}2,1,2,,,57,,,13,,6,5,6,,,71,,,24,,,36,,,1b/8b,,{2},
{1}3h[1:1]/6h[1:1],{4},4-8[8:1]/5-1[8:1],4b/5b,,{8}1/2-6[8:1],,1,8,{16}75,,,4,{8}5,34,
{4}3/4^7[8:1],4^1[8:1],4-8[8:1],4w8[8:1],4,62,3/7^4[8:1],2,2^5[8:1],6,7-3[8:1],3,
{8}24,{4}2/4q5[8:3]*>5[8:3],4,,{8},47,{16}6,5,6,,25,,3,4,3,,
{4}5/2-6[8:1],2/5>1[4:1],1<5[4:1],5p1[4:1],1p5[4:1],3-7[8:1],3,
{16}68,,,1,{8}8,12,1/2-6[8:1],,1,8,{16}75,,,4,{8}5,34,{4}2V86[4:1]/5,6V42[4:1],2-6[8:1],8w4[8:1],8b,
{4}26,2^5[8:1],27,8^5[8:1],84,2^7[8:1],25,6-1[8:1],6/4-7[8:1],4/8-3[8:1],8/2<5[4:1],2/6h[4:1],,
{16}1,8,1,8,1,8,1,8,{4}2b-4[8:1]/7b-4[8:1],2^7[8:1]/7,2/6v1[8:1],6/2V46[8:1],2/7-3[8:1],71,
{16}2/4-8[8:1],,,5,{8}4,6,6-2[8:1],,7,8,{16}1/3-7[8:1],,,4,{8}3,5,
{4}6-2[8:1]/8-4[8:1],68,3-7[8:1]/1-5[8:1],31,68,12,3/5^8[8:1],35,7/2^5[8:1],27,6/8^5[8:1],68,
{16}24,,7,8,7,,46,,2,1,{8}2,35,78,26,2h[4:1]/6h[4:1],,,{32}18,2,3,4,5,6,7,8,
{4}1-4[8:1]/5v8[8:1],1b/5b,3^8[8:1]/7^4[8:1],7/3-7[8:1],3/1V35[8:1],1/6-2[8:1],68,
{16}13,,,8,{8}1,78,7-3[8:1]/8,,8,1,{16}24,,,5,{8}4,56,
{4}5/6-2[8:1],6/7-3[8:1],7/8-4[8:1],8/1w5[8:1],1b,,8^5[8:1]/4,84,4^1[8:1]/6,46,5^8[8:1]/2,
5/1-6[8:1],1/7-4[8:1],7/5-2[8:1],5/3-8[8:1],3/1-5[8:1],1b/7h[4:3],,,1,
{32}1b,2,3,4,5,6,7,8,1,2,3,4,5,6,7,8,1,2,3,4,5,6,7,8,1,2,3,4,5,6,7,8,
1,2,3,4,5,6,7,8,1,2,3,4,5,6,7,8,1,2,3,4,5,6,7,8,{4}1,
6h[4:1],{8}3,2,{4}1-5[8:1]/8-4[8:1],18,{1}3b/6b,,,,E
Re:MASTER
- 追加しました。修正等ありましたらよろしくお願いします。 -- けもがみ (2024-03-10 07:44:22)
最終更新:2026年04月11日 19:00