| アーティスト |
ユリイ・カノン feat. GUMI |
BASIC
(145.0){1},,,,,,,,,
{1}1,
{1}1,
{1}2,
{1}2,
{1}3,
{1}3,
{1}4,
{1}4x/5x,
{1}5h[2:1],
{1}5,
{1}6h[2:1],
{1}6,
{2}7,7,
{2}8,8,
{2}1,1,
{1}1x/8x,
{2}8,8,
{1}8,
{2}7,7,
{1}7,
{2}6,6,
{2}5,5,
{2}4,4,
{1}4x/5x,
{1}B3,
{1}B2,
{1}B1,
{1}B8,
{1}B7,
{1}B6,
{1}Chf[1:1],,
{4}1,1,1,,
{4}2,2,2,,
{4}3,3,3,,
{4}4,4,4/5,,
{4}5,5,5,,
{4}6,6,6,,
{4}7,7,7,,
{4}1x/8x,1x/8x,1b/8b,,
{4}8,8,8,,
{4}7,7,7,,
{4}6,6,6,,
{4}5,5,4x/5x,,
{4}4,4,4,,
{4}3,3,3,,
{4}2,2,2,,
{4}1x/8x,1x/8x,1x/8x,,
{4}2,2,3,3,
{4}4,4,4/5,,
{4}6,6,7,7,
{4}8,8,1/8,,
{4}7,7,6,6,
{4}5,5,4/5,,
{4}3,3,2,2,
{4}1x/8x,1x/8x,1b/8b,,
{2}1,1,
{4}1,8,1,,
{1}1-5[4:3],,
{2}8,8,
{4}8,1,8,,
{1}8-4[4:3],,
{1}3h[2:1],
{1}2h[2:1],
{1}1h[2:1],
{1}8h[2:1],
{2}7,7,
{2}6,6,
{2}4/5,4/5,
{4}4x,5x,4b,
E
ADVANCED
(145.0){1},
{2}1h[2:1],2h[2:1],
{2}3h[2:1],4,
{2}5h[2:1],6h[2:1],
{2}7h[2:1],8,
{4}2,1/2,2,1/2,
{4}7,7/8,1x/6x,,
{4}7,7/8,7,7/8,
{4}1,1/8,2b/7b,,
{4}1,2,3/4,,
{4}5,6,7/8,,
{4}8,7,6,5,
{4}4,3,1x/2x,,
{4}8,7,5/6,,
{4}4,3,1/2,,
{4}3,4,5,6,
{4}7,1x/8x,2b/7b,,
{4}6h[4:3],,,5,
{4}4h[4:3],,,5,
{4}6h[4:3],,,5,
{4}4,3,3x/4x,,
{4}3h[4:3],,,4,
{4}5h[4:3],,,4,
{4}3h[4:3],,,4,
{4}5,6,5x/7x,,
{4}6,6,5/6,,
{4}4,4,4/5,,
{4}6,6,6,5,
{4}4,3,2x/4x,,
{4}3,3,3/4,,
{4}5,5,4/5,,
{4}3,3,3,2,
{4}1,8,2x/7x,,
{1}8-5[8:3],
{4}4,4,4x,,
{1}4-1[8:3],
{4}8,8,8x,,
{1}7-4[8:3],
{4}3,3,3x,,
{4}2,2,1,1,
{4}1/8,1/8,2b/7b,,
{4}8,7,6,5,
{4}4,3,1/2,,
{4}3h[4:1],4,5h[4:1],4,
{4}3,1/2,3x/8x,,
{4}1,2,3,4,
{4}5,6,7/8,,
{4}6h[4:1],5,4h[4:1],5,
{1}4-1[8:3]/5-8[8:3],
{4}1,2,3,4,
{4}5,6,7/8,,
{4}6h[4:1],5,4h[4:1],5,
{4}6,7/8,1x/6x,,
{4}8,7,6,5,
{4}4,3,1/2,,
{4}3h[4:1],4,5h[4:1],4,
{4}4/5,3h[4:1]/6h[4:1],,,
{4}2,1/2,7,7/8,
{4}6,5/6,4x/7x,,
{4}6h[4:1],5,3h[4:1],4,
{1}4^1[8:3]/5^8[8:3],
{4}7,7/8,2,1/2,
{4}3,3/4,2x/5x,,
{4}3h[4:1],4,6h[4:1],5,
{4}4/5,3/6,2b/7b,,
{4}8,7,5/6,4,
{4}5/6,4/7,3x/8x,,
{1}1^4[8:3],
{1}5^8[8:3],
{4}1,2,3/4,5,
{4}3/4,2/5,1x/6x,,
{1}7^4[8:3],
{1}3^8[8:3],
{2}B7,B5,
{1}B3,
{2}B2,B4,
{1}B6,
{2}B7,C1,
{2}B3,B2,
{2}C1,B6,
{2}Chf[2:1],,
E
EXPERT
(145.0){1},
{2}1-4[8:1],8-5[8:1],
{4}1,2/8,3/7,,
{2}8-5[8:1],1-4[8:1],
{4}8,1/7,2/6,,
{2}1^4[8:1],8^5[8:1],
{4}1,2/8,3/7,,
{2}8^5[8:1],1^4[8:1],
{4}8b,,1/8,4/5,
{8}3,3,4,,6,6,5,,
{4}3/4,1/2,7/8,5/6,
{8}6,6,5,,3,3,4,,
{4}5/6,7/8,1/2,3/4,
{8}3,3,4,,6,6,5,,
{4}2/4,1/8,5/7,4/5,
{8}6,6,5,,3,3,4,,
{4}5/7,1/8,2/4,4/5,
{4}6h[1:2],5,5,5,
{4}7,8,1,2,
{4}3h[1:2],4,4,4,
{4}2,1,8,7,
{4}6h[2:1],5,3h[2:1],4,
{4}6,4/5,2/7,,
{4}1/8,2/7,3/6,5/4>5[2:1],
{4},,,4/5,
{4}6h[2:1],5,3h[2:1],4,
{4}7h[2:1],5,2h[2:1],4,
{4}8h[2:1],6,1h[2:1],3,
{4}8h[2:1],5,1,4/5,
{4}2h[4:1],1h[4:1],8h[4:1],7h[4:1],
{4}6h[4:1],5h[4:1],4,3/6,
{2}2-5[8:1],6-1[8:1],
{4}2h[4:1],3h[4:1],4h[4:1],5,
{1}Ch[2:1],
{4}1,2/4,8,5/7,
{1}B3/B6/Ch[2:1],
{4}8,4/7,1,2/5,
{1}B2/B3/B6/B7/Ch[2:1],
{4}1,2/6,8,3/7,
{4}6h[4:1],8h[4:1],1h[4:1],3h[4:1],
{4}6,1/8,2b/7b,1-5[8:1]/8-6[8:1],
{8},,1-3[8:1]/8-4[8:1],,,,1,1,
{4}8,B2/B3/E4,E6/B6/B7,1-3[8:1]/8-4[8:1],
{8},,1-5[8:1]/8-6[8:1],,,,8,8,
{4}1,B5/B6/E7,E3/B3/B4,7-5[8:1]/8-4[8:1],
{8},,1-5[8:1]/2-4[8:1],,,,8,8,
{4}1,B3/E3/B4,B5/B6/E7,1-5[8:1]/2-4[8:1],
{8},,7-5[8:1]/8-4[8:1],,,,1,1,
{4}8,4/5,C1f/B2/B3/B6/B7,,
{8}1/8,,4/5,,2b/7b,,1,1,
{4}8-5[8:1],1-4[8:1],8,6/5-2[8:1],
{8},,3/4-7[8:1],,,,8,8,
{4}1-4[8:1],8,2/7,3/4-7[8:1],
{8},,6/5-2[8:1],,,,8,8,
{4}1^4[8:1],8^5[8:1],1,3/4-8[8:1],
{4},6/5-1[8:1],,3/4-8[8:1],
{4},1,2b/7b,3-1[8:1]/8-4[8:1],
{8},,1-5[8:1]/6-8[8:1],,,,8,8,
{4}1,B4/B5/E6,B2/B3/E4,1-5[8:1]/6-8[8:1],
{8},,3-1[8:1]/8-4[8:1],,,,1,1,
{4}8,B3/E3/B4,B5/B6/E7,2-8[8:1]/7-3[8:1],
{8},,1-5[8:1]/6-8[8:1],,,,8,8,
{4}1,B5/B6/E7,E3/B3/B4,2-6[8:1]/7-1[8:1],
{8},,3-1[8:1]/8-4[8:1],,,,1,1,
{4}8,4/5,C1f/B2/B3/B6/B7,,
{8}1/8,1/8,1/8,,3b/6b,,8,8,
{4}1^4[8:1],6-3[8:1],1,2/4-7[8:1],
{8},,7/5-2[8:1],,,,1,1,
{4}8-5[8:1],1-4[8:1],8,6/5-2[8:1],
{8},,3/4-7[8:1],,,,1,1,
{4}8^5[8:1],3-6[8:1],8,7/5-1[8:1],
{4},2/4-8[8:1],,7/5-1[8:1],
{4},8,3b/6b,,
{8}5/7,,4,4,5,,3,,
{4}2/4h[4:1],5h[4:1],7h[4:1],4,
{8}2/5,,8,8,1,,6,,
{8}4/7,,1,1,2/7,,4/5,,
{8}6h[4:1],,5,5,8h[4:1],,1,8,
{8}3h[4:1],,4,4,1h[4:1],,8,1,
{8}6,6,5,,3,3,4,,
{4}E4/E6,B1/B8,C1f/B2/B3/B6/B7,
E
MASTER
(145)
{4}45,
{2}3hx[2:1]/6,2hx[2:1],1hx[2:1],{4}8,7,
{2}3/6hx[2:1],7hx[2:1],8hx[2:1],{4}1,2,
3/5h[4:1],4,4h[4:1]/6,5,2/4h[4:1],3,5h[4:1]/7,{8}4,3,
2h[4:1]/5,,5,6,{4}4h[4:1]/7,5,B2/B7/Ch[2:1],,,2x/7x,
{16}3x,4,,4,2,,2,,6,5,,5,{8}7,7,7-5[8:1]/8,,1-5[8:1],,7,7,47,,
{16}6,5,,5,7,,7,,3,4,,4,{8}2,2,25,3,45,6,47,,B3/B4/B7/B8,,
{16}6x,5,,5,8,,8,,3,4,,4,{8}1,1,2-4[8:1]/5,,8-4[8:1],,2,2,28,,
{16}3,5,,5,1,,1,,6,4,,4,{8}8,8,17,2,35,6,{2}2-4[16:1]/7x-5[16:1],
{8}35,,35,3,3h[4:1]/5,,B7/B8,,56,4,{4}3h[4:1]/6-4[8:1],,B2/B3,
{8}4h[4:1]/6,,6,6,5/6h[4:1],,B1/E2,,34,5,{4}3^5[8:1]/6h[4:1],,B6/E6,
7-5[8:1],B5,2-4[8:1],B4,7-5[8:1],C,2x/7x,{8}45,5,
3h[4:1]/5,,4,5,{4}2/6^3[4:1],3pp6[4:3],1hx[2:1],,,2,
{8}3/4h[4:1],,2,3,4h[4:1]/6,,B8/E8,,6,35,{4}2/4h[4:1],B2/E2,4x/5x,
{8}4h[4:1]/6,,7,36,2h[4:1]/5,,B8/E8,,5,36,{4}4/7h[4:1],B1/E2,3x/5x,
2-4[8:1],B4/B5,7-5[8:1],B3/E3,2-4[8:1],B7/E8,1x/8x,{8}3x/6x,3,
4/7h[4:1],,4,5,3h[4:1]/6,,7,1,28,28,46,46,{16}3,5,3,5,2b,,,,
4h[16:3],,,2h[16:3],{8},1^4[8:1],1,8h[4:1],,1,{4}1-4[8:1],5-8[8:1],1^4[8:1],5,
{16}5h[16:3],,,7h[16:3],{8},8^5[8:1],8,1h[4:1],,8,{4}8-5[8:1],4-1[8:1],8^5[8:1],4,
{16}4h[16:3],,,2h[16:3],{8},1^4[8:1],1,8h[4:1],,1,{4}1-4[8:1],5^8[8:1],3,B4/B6/E4/E7,
{8}35,3,46,6,25,2,{4}3x/7x,B2/B3/E2/E4,B6/B7/E6/E8,Cf/E1/E5,{8}1-5[16:1]/8,7,
6x,,4/6-1[16:1],3,2x,,18,2,34,5,67,8,2x/6x,,1/8-4[16:1],2,
3x,,3-8[16:1]/5,6,7hx[4:1],,5^2[8:1],5,8^5[8:1],8,1,1,3x/7x,,2-5[16:1]/5,6,
8x,,4/7-4[16:1],3,1x,,18,7,56,4,23,1,3x/7x,,
1x-5[8:1]/5x-7[8:1],1x/5x,,,4x-2[8:1]/8x-4[8:1],4x/8x,,,5,6,
{4}7x^4[8:1]/8x-4[8:1],7x/8x,B1/B8/Cf,,{8}1b/8b,2b/7b,{2}3b^1[8:1]/6b^8[8:1],
{8}27,3,45,{16}6,5,{8}7,18,2x/7x,,4-8[16:1]/8,7,
5x,,1/7-4[16:1],2,3hx[4:1],,2^7[8:1],2,5^2[8:1],5,8,8,2x/6x,,3-8[16:1]/8,6,
4x,,1/5-1[16:1],2,4x,,28,7,46,{16}3,4,{8}2,18,2x/7x,,
1x^3[8:1]/5x-1[8:1],1x/5x,,,4x-8[8:1]/8x^6[8:1],4x/8x,,,18,2,35,{16}6,5,{8}7,18,3x/6x,,
2^4[16:1]/8,C,E5,,1/7^5[16:1],C,E5,,16,2,34,{16}6,5,{8}7,18,3x/6x,,7^5[16:1]/8,C,
E5,,1/2^4[16:1],C,E5,,56,7,18,{16}2,4,{8}3,45,3x/6x,,2^5[16:1]/6,C,
E2,,3/7^4[16:1],C,E8,,28,7,46,{16}3,4,{8}2,18,2x/7x,,2/6^1[16:1],C,
E6,,3^8[16:1]/7,C,E4,,5,6,{4}1x^4[8:1]/7x^4[8:1],1x/7x,3b/8b,,
B2/B3/B4/B5/B6/B7/Cf/E5,{8}1x/8x,2x/7x,{16}3x/6hx[16:3],,,5,7,,1,,28,,3,5,{8}4,57,
1-5[8:1]/8,,6,7,8^5[8:1],,3,1,8^3[8:1],,5,7,48,{16}7,5,{8}6,45,3x/6x,,2x/8x,3x/7x,
{16}4x/6hx[16:3],,,5,7,,28,,3h[16:3],,,4,2,,8,,17,,6,4,{8}5,34,
2/5-1[8:1],,2,3,4^1[8:1],,7,5,4^7[8:1],,1,3,{4}4w8[8:1],,2b/6b,{16},,3,4,
{4}2x-5[8:1],6h[2:1],E8,E6,4hx[2:1],E5,E1,{16}B2/B7/E3/E7,,5,4,
{4}5x-1[8:1],3h[2:1],E2,E4,5x^8[8:1],1x^4[8:1],8x,E1/E5/Cf,
{16}7hx[16:3],,,8,6,,15,,2h[16:3],,,1,3,,48,,5h[16:3]/7,,,6,{8}5,45,{2}3x-1[8:1]/6x-4[8:1],
{16}3hx[16:3]/7hx[16:3],,,,37,,6,,25,,3,4,3,,27,,E2,E8,B2,B7,B3,B6,E4,E6,
{1}B1/B8/Cf,,
E
Re:MASTER
最終更新:2024年03月14日 08:42