アットウィキロゴ

folern

アーティスト ぬゆり

BPM BASIC ADVANCED EXPERT MASTER Re:MASTER
200 5 8 12 13+ -

EXPERT MASTER Re:MASTER
譜面制作者 翠楼屋 翠楼屋 -

BASIC


ADVANCED


EXPERT

(200)
{4},,,,
4/5,3h[8:7],
{8}4,4,,5h[8:4],,,,,3,3,35,,
{4}5,6h[8:7],
{8}5,5,,4h[4:2],,,,6,,5,,4,
{4}4,5/3h[8:7],
{8}4,4,,5h[4:2],,,,,3,3,35,,
{4}5,6h[4:1],
{8}5,5,,
{4}4,3,2,
{8}16,16,,
{4}5,54,
{8}6,6h[4:2],,5h[4:1],,,,6,6,,65,,
{4}4,4,
{8}53,5/3h[4:2],,4,,4,,
{4}34,
{8}25,25,,
{4}5h[4:1],4,
{8}6,6h[4:2],,5h[4:1],,,,56,5h[4:1]/6h[4:1],,,,
E6,,E5,,E4/Ch[8:3],,,
{4}1x,1x,8x/2x,
{8},45,,
7x/3-5[4:1],,,,8,8,,75,,
6,,35,,26,26,,1,,1,,25,,3,3,,
26,26,,73,,45,,
2x/6-4[4:1],,,,1,1,,2,,35,,46,,7h[4:1],,8,,
6,6,,75,,64,64,,53,53,,62,,45,,
3-5[4:1]/6x,,,,8,8,,7,,64,,53,,4h[4:1]/2h[4:1],
,,,1,1,,26,,35,35,,46,46,,
37,,24,,
1-7[4:1]/5,,,,
6,6,,5,,46,,53,,2,2h[4:1],,
4h[4:1],,5h[4:1],,6,,65,,54,,43,,1x/7x,1b/7b,,,
2b/8b,,3h[4:1],,4,4q1[8:3],,,,2,2,,21,,3,,
83,,7h[4:1],,8,8q5[8:3],,,,6,6,,65,,34,,
25,,1h[4:1],,8,8p3[8:3],,,,2,2,,12,,83,,
7h[4:1],,5,,2h[4:1],,4,,
{4}3,24,3-6[8:1],,7h[4:1],8b,
{8}8,,17,17,,
6h[4:1],,5,5,,74,,
{4}2h[4:1],1,1,
{8}82,82,,3<6[4:1],,,,7x,7x,,
{4}8x-4[4:1]/7x-3[4:1],,,2,
1x-5[4:1]/2x-6[4:1],,,8x,
{8}7,7,5,,3,3,4,,
81,81,,56,,24,24,,
{1}B1/B6/Cf,,
{4}4/6h[4:6],,B5,,,,B4,,
3h[4:6],,B5,,,,B3,,
8h[4:6],,B5/B6,,,,C,,
1h[4:2],,3h[4:2],,4h[4:2],,B4/B3,,
7h[4:2],,6h[4:2],,5h[4:2],,B5/B4,,
2h[4:2],,4h[4:2],,5h[4:2],,B5/B6,,
7<2[4:3],,,,1h[4:3],,,8,
{8}8b/1b,,12,3,45,,6,,
52,,43,2,17,,6-1[8:1],,4,,3-6[8:1],,6,,7h[4:1],,
{12}6,,75,,64,,
{8}64,,1x,,
24,3,3,4/2-6[8:1],,8,8,,
75,6,6,5/7-3[8:1],,1,1>6[8:4],,
{4}8b,,,7,
74,65,34,25,
{8}8b/1b,,87,6,53,,2,,
74,,65,7,82,,3-8[8:1],,5,,
6-3[8:1],,3,,1-5[8:1],,7,,
6-1[8:1]/4-1[8:1],,,,2x/8x,,
7,5,6,3,4,2,2,8,3,4,2,7,8,6,
{4}1<5[4:2]*>5[4:2],,,,
37,
{4}2hx[8:3]/6hx[8:3],,
{4}2x/6x,3x/5x,
46,
{8}1b,,
24,4/2-6[8:1],5-8[8:1],,,4,,
12,1-5[8:1]/2-6[8:1],,,,
74,,34,25,,56,47,,
{12}3h[12:2],,2h[12:2],,1,,
{8}1,,8/3^8[8:1],,
{4}7,65,
{8}43,52,6^1[8:1]/1,,
{4}2,34,
{8}65,74,8<2[4:3]/3,,
{1}Cf,
{4}21,87,45,27,
{12}6h[12:2],,5,
{8},74,4/7-3[9:1],,1,,
{12}2h[12:2],,1,
{8},83,8/3-8[8:1],,5,,
61,,12,38,,87,1/6h[4:1],,
{4}8h[4:1],1h[4:1],4,36,
{8}2/7-4[8:1],,3,3-7[8:1],,8,8,,
1/6-2[8:1],,3,3-7[8:1],,8,8<2[4:3],,
{1}Cf,
{4}8x/1x,2-4[8:1]/7-5[8:1],,7b/2b,
{8}3,4,2,6,5,7,1,1,4,4,2,2,6,6,5,7,
2,1,3,7,8,6,4,5,
{12}3h[12:2],,2h[12:2],,1,,
{8}1,1,1x/8x,,
7,7,5,6,3,3,4,2,8,8,3,3,4,4,2,2,
6,5,7,3,4,2,8,1,7,7,4,5,3,3,2b/8b,,
7x/3x,,,E3,E4,,B5/B6,,C,,,E7,E6,,B4/B3,,
{4}B1/E2,E6/B5,E4/B4,E8/B8,E3/B3,E5/B5,C,,
{8}7x/3x,,,E7,E6,,E3/B3/B4,,C,,,E3,E4,,B5/E6,,
{4}E7/B7/B8,E1/B1/B2,E3/B3/B4,B5/B6/E7,Ch[16:15],,,
{16},,,B2/B3/B7/B6,

MASTER

(200){4},,,{16}E6,B5,B4,E4,{8}C,,8,,7,7,,5/6,,4/5,,3/4,{24}3,4,3,4h[8:1],,,{8},,3,,4,,5,5,,B4/B6,,B5/B3,,E4/B7,,E6/B2,,,3h[4:1],,4,,3,3,,3/4,,4/5,,5/6,{24}6,5,6,5h[8:1],,,{8},,6,,5,,4,4,,4/5,4/5,3,3,4/5,6,6,4/5,,3x/6x,,5,5,4,6h[4:1],,5h[4:1],,6,,4/7,{24}6,5,6,5h[8:1],,,{8},,6,6,4,5,5,3,4,4h[4:1],,2h[4:1],,3h[4:1],,4h[4:1],,5,5,,2,5,5,3,4,4h[4:1],,3,,2/5,{24}3,4,3,4h[8:1],,,{8},,3,4,5,6,7,1-5[8:1]/8,,7x-3[8:1],,1x-4[8:1]*-6[8:1],,,,5,4b/6b,,

{8}6x,5,7h[4:1],,6,5,4,3h[4:1],,5,2h[4:1],,4,,1/5,,3,4,2h[4:1],,4,4,3,6h[4:1],,5,4/7,,3/5,,2/6,,1,8,2h[4:1],,3,4,5,6h[4:1],,5,5,,4/7,,
3/8h[4:1],,5,7,4h[4:1],,6,4,5,3h[4:1],,4,2h[4:1],,1,,3b/8b,,7x-4[8:1],4,3,,2,2,4,3h[4:1],,4,2h[4:1],,1,1,3/8,,7-4[8:1],4,3,,2,2,4,3h[4:1],,4,2h[4:1],,6,,3/5,,2-5[8:1],6,7h[4:1],,6,5,4,3h[4:1],,4,4,1,1,5,4,3,2x/5x,3,3,2x/5x,4,4,2x/5x,3,3x/4x,4x/5x,{16}5x/6x,,6,5,{8}6,2b/7b,,,

{8}3x-7[8:1]/4x-8[8:1],,,,1x/6x,,5,5<8[4:1],,1,2,3,4h[4:1],,8,8,5-2[8:1],,7-4[8:1],,1x,1>4[4:1],,4<7[4:1],,7x,,8x,8x,,4/7,3/8,1-5[8:1]/2-6[8:1],,,,4/7,,3/8,3/8h[4:1],,1,1,7,7,5,5,6,{16}5x/6x,,7,8,7,,1/6,,2,1,2,,3x/8x,,3/8,,,,{8}5/6,4/5,3/4,2h[4:1],,1,1x,7x-3[8:1]/8x-4[8:1],,7b/8b,,2x/5x,,6,6<1[4:1],,1,2,3,4h[16:3],,8,8,5-2[8:1],,7-4[8:1],,1x,1>4[4:1],,4p7[4:1],,7x,,8x,8x,1,6,4,8b,,3/7h[4:1],,5,5h[4:1],,4,,3/4,2/5,{16}1/6,,7,8,7,,1/6,,2,,{8}5-3[8:1],,1,2-5[8:1],,5,6,4x/7x,,1/8,,3/4,3-8[8:1]/4-8[8:1],,,,

{2}1b/7b,E1,,C,,E5,,C,5h[1:4],E1,,C,,E5,,C,1x<4[4:13],E1,,C,,E5,,C,8>5[4:11],E1,,C,,Ch[2:1],{4},,,2/6<1[8:1],

{24}2x,3,4,5>2[8:1],,,1x,,,1x,8,7,{8}6,,7/3>8[8:1],4,{24}7x,6,5,4<7[8:1],,,8x,,,8x,1,2,{8}3,,2/6<1[8:1],5,{24}2x,3,4,5>2[8:1],,,1x,,,1x,8,7,{8}6,,1,1,{16}4h[8:1]/7h[8:1],,,5h[8:1]/6h[8:1],,,3/4,,3x-8[8:1]/4x-7[8:1],,,,3b/4b,,,,1x/6x,,2,,3/5,,6,5,6,,7,,1,,5,,2/4,,3,,4/7,,6,5,6,,5/6,,4/7,,3,,{8}8<5[8:1],,2,3>8[8:1],,5,6,6,{16}7b/8b,,,,1/2x,3,4,5,8x,7,6,5,1x,,,,5hx[8:1]/7hx[8:1],,,5x/7x,,,6,5,7,,7,,4/6,,3/5,,2hx[8:1]/4hx[8:1],,,2x/4x,,,3,4,2,,2,,5/3,,4,,{8}6<1[8:1],,2,3<6[8:1],,8,7-3[8:1],,7x/4-1[8:1],,4x/8-4[8:1],,8x,,2b/6b,,3x,3,{16}4/7,,6,5,7,,4/8,,1,,2,,3x,,3x,,2/5,,3,4,2,,1/5,,1,,7,,6,5,6,5,7,4,7,4,8,3,8,3,1,2,1,2,

{8}3b/8b,,,,4/5,4/5,3/6,2/7,1-5[8:1]/8-4[8:1],,1b/8b,,{16}2/7,,3,,4,,6,5,6,,4/7,,3/8,,2,1,2,,3/8,,3/8,,7,,{24}1/6,2,3,4hx[8:1],,,1,,,1,2,3,4hx[8:1],,,1,,,{8}1,8,{16}7h[8:1]/8h[8:1],,,1h[8:1]/6h[8:1],,,2/5,,2-5[8:1]/5-1[8:1],,,,2b/5b,,,,8x,,7,,5/6,,3,4,3,,2/5,,1,8,1,8,1x,,2,,3/7,,6,5,7,,{8}4/6,3/5,2/4,1<6[8:1],2,3,4>1[8:1],5,6,7,7,7/8,,{16}1x/6x,2,3,4,8x,7,6,5,1,2,3,4,5hx[16:3]/6x,,,6x,,,7,8,6,,1/5,,2/4x,,3,,4hx[16:3]/6x,,,6,,,7,8,6,,1/5,,2x/4,,3,,6x,5,7,,4/8,,3x,4,2,,
1/5,,7x,8,7,8,6,,3,4,,7,5,,8,1,8,,2b/7b,,,,1x/6x,,3,4,3,4,2x,,6,5,7,4,8,,1/2,,3x/8x,,6,5,6,5,7x,,3,4,2,,1/6,,1/6,,{32}1x,2,3,4,5,6,7,8,1x,2,3,4,5,6,7,8,1x,2,3,4,5,6,7,8,1x,2,3,4,5,6,7,8,{4}1x/Cf,,8w4[8:1],8b,

{16}2x,1,3,,4/8,,7,5,6,,4,5,3,,2/6,,1,8,2,,3/7,,6,4,5,,3,4,2,,1/2,,{24}3hx[8:1],,,1x,8x,7x,6x,,,4hx[8:1],,,8x,7x,6x,5x,,,{16}3x/4x,,3/4,,2hx[8:1]/5hx[8:1],,,6h[8:1]/1h[8:1],,,7/8,,7-3[8:1]/8-4[8:1],,,,7b/8b,,,,1h[8:1]/2h[8:1],,,1/2,,,3/8,,7,4,6,3,5,,2/4,,8h[8:1]/7h[8:1],,,8/7,,,5/1,,2,4,3,5,4,,6/5,,{24}7hx[8:1],,,8x,1x,2x,3x,,,5hx[8:1],,,1x,2x,3x,4x,,,6hx[8:1],,,2x,3x,4x,5x,,,7/8,,,{16}7-3[8:1]/8-4[8:1],,,,7b/8b,,,,2/5,,,,

{16}3/4h[16:3],,,5h[16:3],,,6,,6,,5,,4/5,,,,3/4h[16:3],,,5h[16:3],,,6,,6,,4,,3/5,,,,6h[4:1],,4,,3h[4:1],,5,,6h[4:1],,5,,3h[4:1],,
4,,6,,6,,4,,4,,7,6,5,4,3,,,,3,,3,,5,,5,,2,3,4,5,6,,,,6,,6,,4,,4h[4:1],,,,5,,4/5,,,,3,,3,,6,,6,,4,5,4,5,4,5,4,5,{24}6x,7x,8x,1x,2x,3x,4x,5x,6x,7x,8x,1x,2,3,4,5,6,7,8,1,2,3,4,5h[24:49]/Ch[24:49],E

Re:MASTER


  • 誤植された譜面データを削除しました。 -- Sugar (2026-02-18 12:35:22)
  • MASTER譜面を追加しました。修正等ありましたらよろしくお願いします。 -- Sugar (2026-05-06 13:31:32)
  • EXPERT譜面を追加しました。ノーツ数は正しいことを確認していますが、配置やノーツ種の修正などがありましたらよろしくお願いします。 -- 白鳳 (2026-06-27 17:50:21)
名前:
コメント:

タグ:

+ タグ編集
  • タグ:
最終更新:2026年06月27日 18:16