アットウィキロゴ

Azure Vixen

アーティスト かめりあ

BPM BASIC ADVANCED EXPERT MASTER
163 6 8 13 14+

EXPERT MASTER
譜面制作者 ロシェ@ペンギン BELiZHEL

BASIC


ADVANCED


EXPERT


MASTER

(163){2}
1^4[4:1],8^5[4:1],
{8}3,2,1p5[4:1]*q5[4:1],1,{2},
4pp1[2:1]/6qq1[2:1],,
2qq5[2:1]/8pp5[2:1],,
4^1[4:1],5^8[4:1],
{8}2,3,4p8[4:1]*q8[4:1],4,{2},
1qq4[2:1]/7pp4[2:1],,
{8}2h[4:7],,7-4V61[1:1],7,{4},,
,,,7,

{32}1bx/8bx,2x/7x,3x/6x,4x/5x,{16},,3,4,3,5,4,5,3,4,2h[8:1],,1,,
{32}1b/2b,38,47,56,{16},,7>5[4:1],5,6,5,{2}7,
{32}7b/8b,16,25,34,{16},,6,4,5,4,6,5,6,,4h[8:1]/7h[8:1],,,,
{32}1b/8b,27,36,45,{16},,2,4,3,5,4,6,3,5,4,,36,,
{24}2,1,2,{8}1,38,38,47,{24}5,6,5,{8}6,47,
{24}3,4,3,{8}4,35,26,17,{16}8,8,8,8,8,,
{24}3,4,3,{8}4,25,25,16,{24}7,8,7,{8}8,16,
{24}2,1,2,{8}1,38,47,5h[8:1],6h[8:1],5,47,
25,{16}3,4,,6,5,,37,,6,46,,3,35,,
26,,3,34,,6,56,,3,4,3,4,2,5,2,5,
{8}1hx[16:1],1hx[16:1],2hx[16:1]/8hx[16:1],3hx[16:1]/7hx[16:1],4x-8[8:1]/6hx[16:1],,4,,
17,{16}2,4,3,5,4,6,2-6[8:1],7,1,8,2b,,,,

34,,1,,24,24,,3,5,3,5,3,5,,46,,
57,,8,,57,57,,6,5,6,5,6,4,6,4,,
35,,1,,35,35,,2,4,2,4,2,4,,35,,
46,,7-4[8:1],5,,4,7,,2,2,4,3,5,4,5,,
46,,8,,56,56,,7,5,7,5,7,5,,46,,
35,,2,,18,18,,2,24,,35,,46,,5b/7b,,
56,,8,,46,46,,7,5,6,4,5,3,,24,,
35,,47,,6,5,,7,8^3[8:1],,5,,6,,7,,
28,,1,,3,4,,5,4,,3,4,2,4,1,,
56,,47,,6,5,,4,5,,6,5,7,5,8,,
2b/4b,,1b/8b,,5b/7b,,,7,5,,2,1,3,1,4,,
6,5,,7,8,,1/6^3q8[4:1],,,,,,,,,,
1x/7x,,,46,,35,35,,2/4v1[8:1],,,,3,,,,
2x/8x,,,35,,46,46,,5v8[8:1],,7^4[8:1],,,,,,
2,,,17,,68,68,,3v8[8:1]/5,,14,,,,,,
2,2,,4q5[16:3]/6,,5,4,,,,,,8,1,8,1,

{8}2bx-5[8:1]/7bx,,2/6-1[8:1],7,4-1[8:1]/6,5,4/6-3[8:1],7,
2-6[8:1]/6,1,2/7-1[8:1],8,3-5[8:1]/7,2,37,,
{16}6,5,,18,,3,4,,3,5,2,6,1h[4:1],,,,
2,2,3,3,4,4,5,5,8,7,6,5,48,1,2,3,
{8}4-1[8:1]/6,,4/8-5[8:1],7,2-5[8:1]/8,1,2/8-3[8:1],7,
4-8[8:1]/8,5,4/7-5[8:1],6,3-1[8:1]/7,2,34,,
{16}7,5,,18,,2,4,,2,2,4,4,5,5,7,7,
1,,2,24,,7,57,,3,34,{24},8x,7x,6x,5x,4x,3x,2x,1x,

{4}8xV64v7[2:1],,,2,
4V28v3[2:1],,,{8}6,6b,
7b,1bpp4[8:3]/8bqq5[8:3],,,,,,,
{16}3,4,3,4,2,5,2,5,1,6,1,6,7bx/8bx,,,,
78,78,,16,,25,,3,4,3,4,3,,12,12,,
34,34,,25,,47,,6,5,6,5,6,,78,78,,
56,56,,47,,38,,2,1,3,1,2,,48,,26,
{4}2pp1[4:1]/6pp5[4:1],,,C,

{1}1x>8[4:13],,,,
{8}8<1[1:3],,,,,,,{1}B6/B7,
B4/B5,{8},{1}Ch[1:1],
{4}E2,E3,E4,E5,E6,E7,E8,E1,
{8}B1,B2,B3,B4,B5,B6,B7,B8,
{16}E1,E2,E3,E4,E5,E6,E7,E8,{32}A1,A2,A3,A4,A5,A6,A7,A8,{4}A1/C,

1bh[4:1]/7bh[4:1],,3bh[4:1]/5bh[4:1],{24},,,,3,4,
{8}3h[8:1],4h[8:1],5h[8:1],6q3[8:1],,,,,
2qq7[2:1]/4,,3h[8:1],{16},4h[8:1],{8},5h,5h,,
6qq3[2:1]/8,,7h[8:1],{16},8h[8:1],{8},1h,1h,,
2bh[4:1]/8bh[4:1],,,,4bh[4:1]/6bh[4:1],,,{24},6,5,
{8}6h[8:1],5h[8:1],4h[8:1],3q8[8:1],,,,,
1/7-5-1-3[2:1],,2h[8:1],{16},3h[8:1],{8},4h,4h,,
56,,18,2V48[4:1]/7V51[4:1],,,,,

{24}3,4,3,{8}4,25,25,16,{24}7,8,7,8,,,16,,,
2,1,2,{8}1,28,37,46,{16}5,5,5,5,5,,
{24}2,1,2,{8}1,38,38,47,{24}6,5,6,5,,,47,,,
1,8,1,{8}8,27,3V17[8:1]/6,7V53[8:1],,,,
{16}28,,3,35,,6,46,,17,,3,34,,6,56,,
18,,2,24,,7,57,,18,,27,,{32}3,4,3,,6,5,6,,
{8}1hx[16:1],2hx[16:1]/8hx[16:1],3hx[16:1]/7hx[16:1],4hx[16:1]/6hx[16:1],5-1[8:1],,5,,
{16}4,5,4,6,4,7,4,8,{32}4w8[8:1],5,6,7,8,1,2,3,{16}4,,,,

3,4,1,8,5,6,2,2h[8:1],,3,2,5,4,7,6,8,
1,4,3,8,1,7,5,8,2,6,5,7,{32}1,2,{16}3,6,6,
2^5[8:1],,4,4,2^7[8:1],,8,8,2-6[8:1],,5,5,2,,7,,
1/5-8[8:1],,2,2,5,,4,4,7-3[8:1],,68,,7b,,,,
7,5,8,1,4,3,7,7h[8:1],,6,7,4,5,2,3,1,
8,5,6,1,8,3,5,1,7,3,4,2,{32}8,7,{16}6,3,3,
7^4[8:1],,5,5,7^2[8:1],,1,1,7-3[8:1],,3,3,7b,,2,,
48,,3,24,,6,57,,2,13,,7,68,,15,,
2-7[8:1],5,4,8,2,,6,6,8,5,1,4,2,3,1,8,
6,7,4,5,2,1,3,4,1,8,4,5,8,7,5,6,
4^1[8:1],,28,,4b/6b,,,,7^4[8:1],8,,1,7b,,,,
{12}3^8[8:1]/5,4x,4x,{8}3b/5b,,1v4[8:1]/7v4[8:1],2b/6b,,,
37,{16}6,5,,3,4,,1-5[8:1]/2-5[8:1],,38,,,,,,
48,,7,5,,2,4,,7-4[8:1]/8-4[8:1],,16,,,,,,
2h[8:1]/5,,1,3b/8b,,,,,4/7h[8:1],,8,1b/6b,,,,,
{24}4,5,4,5,4,5,{16}3,6,3,6,{12}2x,7x,2x,{4}1x/8x,

2bh[4:1]/5bh[4:1],,4bh[4:1]/7bh[4:1],{24},,,,6,5,
{8}6h[8:1],5h[8:1],4h[8:1],3h[8:1],{32}8,7,6,5,4,3,2,1,{16}4b/8b,,,,
35,3,6,,2h[8:1]/4,,7,,35,3,7,,4h[8:1]/6,,8,,
35,3,7,,2h[8:1]/8h[8:1],,,1h[8:1]/7h[8:1],,,56,,45,,34,,
2x-5[8:1]/7x-4[8:1],27,,18,2b/7b,,,,3,3,4,2,6,6,5,7,
2,1,4,5,8,7,4,5,1,1,3,2,7,7,5,6,
{32}2,3,{16}4,7,7,8,6,2,2,{32}8,7,{16}6,3,3,4,2,7,5,
6,6,3,4,2,2,8,8,{32}1w5[8:1],2,3,4,5,6,7,8,{4}1,
2-5[8:1]/6h[4:1],2,3h[4:1]/7-4[8:1],7,
{8}25,3,4>5[4:1]/7,6,45,,,,

{16}7,8,,1b/6b,,2b/5b,,34,35,36,37,38,,2,1,,
3,4,,2b/5b,,1b/6b,,78,17,27,37,47,,6,5,,
3,4,,2b/5b,,3b/8b,,12,28,27,26,25,,{32}3,4,3,4,3,,
,,,,1/7h[8:1],2,3,4,,,6h[8:1]/8,1,2,3,,,2x/6x,,,,1,5,1-4[8:1],5,1-6[8:1],5,1,5,1,5-2[32:3],1,5-8[32:3],
{1}1,,E



名前:
コメント:

タグ:

+ タグ編集
  • タグ:
最終更新:2024年03月21日 20:19