アットウィキロゴ

QuiQ

アーティスト owl*tree feat.nie*tree

BPM BASIC ADVANCED EXPERT MASTER Re:MASTER
120 6 8+ 12+ 14 -

EXPERT MASTER Re:MASTER
譜面制作者 Jack Luxizhel -

BASIC


ADVANCED


EXPERT


MASTER

(120)
{1}3q1[2:1]/7q5[2:1],{8}3q1[2:1]/7q5[2:1],37,{4},,,
{8}3qq5[2:1],3,,,7,6h[4:1],,,{24}6,,6,4,,4,7,5,6,4,6,5,{4}7x-2[8:1]b,3b/7,
{8}34,{24}25,,3,4,,5,4,,3,4,,5,4,,3,4,,5,4,,3,4,,4,3,,3,5,,5,4,,4,
6-3[8:1],,6,5,,5,{4}6,{24}2-5[8:1]/5,,3,4,,4,{4}2,{24}7-4[8:1]/4,,6,5,,5,{4}7,
{24}26,,3,4,,6,{8}5,28,{4}3/7-2[8:1]b,3b/7,
{8}35,{24}2,,2,4,,4,3,,3,5,,5,2,,2,4,,4,3,,3,5,,5,4,,4,5,,5,7,,7,
5-1[8:1],,5,3,,3,{4}5,{24}3,,3,4,,4,5,,5,6,,6,2,,2,4,,4,5,,5,7,,7,
1,,4,2,,5,{8}3,46,{4}7-2[8:1]b/5,3b/7,
{24}34,,3,4,,2,5,,3,4,,2,5,,3,4,,2,5,,3,4,,,35,,
7,5,,6,4,,7,5,,6,4,,7,5,,6,4,,7,{4}5>1[8:1],{24}8,7,6,5,,5,3,,3,4,,4,2,,2,
5^8[8:1],,5,3,,,5^2[8:1],,3,3,,,5^8[8:1],,7,7,,,5-1[8:1],,3,3,,8,5,,6,
{8}6,24,35,{24}6,,6,4,,4,2,,2,4,,4,6,,6,4,,,47,,6,5,,47,,,3,4,,2,
1^6[8:1],,38,,,2,1,,3,{4}3h[4:1],{24}5,6,7,{8}8-4[8:1],7,6-2[8:1],5,4-8[8:1],3,
{24}14,,2,2,,6,{8}6,18,{4}7-2[8:1]b/2,3b/7,

{4}1^3[4:1],3^5[4:1],5^7[4:1],7^1[4:1],
(125)
{4}1^4[4:1],4^7[4:1],7^2[4:1],2^5[4:1],
(130)
5V71[4:1],1V35[4:1],5V71[4:1],1V35[4:1],
(135)
5<1[4:1],1>5[4:1],5-1[8:1],7,
(140)
7s3[4:1],3s7[4:1],7,2,
(145)
1V37[4:1],7V51[4:1],5,8,
(150)
{8}1-3[8:1],8-4[8:1],1,8,1-5[8:1],8-6[8:1],1,8,
(155)
{16}2,2,7,7,1,1,8,8,{32}2x,3x,4x,5x,6x,7x,8x,1x,2x,3x,4x,5x,6x,7x,8x,1x,

(160)
{16}2bx/6bx,,4,4,4,4,4,4,4,4,4,4,4,,35,,3,5,3,5,4,6,4,6,4,5,3,4,2,,13,,
(161)
2-5[8:1],2,2,2,{4}2,{16}6-1[8:1],6,6,6,{4}6,{16}2,4,3,5,{8}4,35,{4}7-2[8:1]b/1,3b/7,
(162)
{16}2x/4x,,3,3,3,3,3,3,3,3,3,3,3,,24,,2,4,2,4,3,5,3,5,3,6,2,7,1,,28,,
(163)
2v5[8:1],2,2,2,{4}2,{16}6^1[8:1],6,6,6,{4}6,{16}3,7,4,6,{8}5,46,{4}7-2[8:1]b/5,3b/7,
(164)
{16}37,,4,6,3,7,2,8,1,7,2,6,3,5,3h[8:1],,4,3,5,3,6,3,7,3,7,2,7,1,7,8,7h[8000:1993],,
(165)
,,8,1,2,3,4,5,6,7,8,1,{4}2h[8:1]/6h[8:1],{16}3,4,2h[8:1],,6,5,7h[8:1],,
1,2,3,4,56,7,8h[80000:19939],,
(166)
,,{8}1,1-5[8:1],2,6-1[8:1],7,4,3,{16}2,1,2,1,,,3,4,3,4,,7,8,6,7,,
(167)
{16}1b/5b,,2,2,{8}4,35,46,25,{16}3x/7x,3x/7x,3x/7x,,1,5,8,4,{8}1-5[8:1],28,{4}7-2[8:1]b/1,3b/7,

(168)
{4}2b/8b,1q4[8:3],7h[8:1],6pp1[4:3],3h[8:1],{8}3,4,5h[8:1],,5,4,
3-5[8:1],1,{4}8^5[8:1]/3^8[8:1],8V24[8:1]/3,{8}6,6,5v2[8:1],5v8[8:1],,,1-4[8:1],1-6[8:1],,,
(169)
{4}5^2[8:1],8^5[8:1],3^8[8:1],6^3[8:1],1^6[8:1],4w8[8:1],4,26,
{8}1-3[8:1],8-4[8:1],1-5[8:1],8-6[8:1],1,8,{24}2,3,4,8,7,6,{4}5/1<3[4:1],,7-2[8:1]b,3b/7,
(170)
{16}1,1,1,1,1,1,1,1,1,1,1-5[8:1],1,1,1,{8}1,,8,75,64,53,42,15,15,24,3,57,6,
{16}3,4,{8}3,25,{4}2-8[8:1]/5,2/6-4[8:1],6/3-7[8:1],{8}38,8,,
{12}2,4,3,7,5,6,1,3,2,8,6,7,4,5,3,5-1[8:1],4,6,{8}5,,
2h[16:1]/8h[16:1],2h[16:1]/8h[16:1],3h[16:1]/7h[16:1],3h[16:1]/7h[16:1],
4-1[8:1]*-7[8:1]/6,35,4,,{16}7x,5,6,4,{8}5-1[8:1],2-4[8:1],5,2,8-6[8:1],5-1[8:1],8,5,
7b,,3/4^1[8:1],5,46,,7/8^5[8:1],1,82,2,3,{4}3-8[8:1]/4-8[8:1],34,
{8}71,{24}1x,2,3,4h[8:1],,,2x,3,4,5h[8:1],,,3x,4,5,6h[8:1],,,4x,5,6,7h[8:1],,,
5,6,7,8,1,2,3,4,5,6,7,8,{4}1-4[8:1]/5v8[8:1],15,37,
{12}B4,B3,B2,B8,B7,B6,E4,E3,E2,E8,E7,E6,A3,A2,A1,A7,A6,A5,D4,D3,D2,
{4}1x/8x-6[8:1],8/4-2[8:1],4/1-5[8:1],1/3>5p4[4:3],{1}7h[4:3],
(180)
{2}2hb[4:1]/E6f/B5/B6,
(182)
7hb[4:1]/E4f/B4/B3,
(184)
{4}2b/5b,4b/7b,
(186)
{8}6b,57,
(188)
3b,24,

(190)
{16}1b/5b,,2,6,2,6,2,6,2,6,2,6,2,6,2,6,3,7,3,7,2,8,2,8,1,1,1,1,{4}1-5[8:1],
(195)
7b-4[8:1]/1,7/3-1[8:1],3/8v5[8:1]*^5[8:1],8,{16}3,4,{8}2,15,26,{4}7-2[8:1]b/3,3b/7,
(200)
{16}48,,3,7,3,7,3,7,3,7,3,7,3,7,3,7,2,6,2,6,3,5,3,5,4,4,4,4,{4}4-8[8:1],
(205)
4/7-4[8:1],7/2-6[8:1],2/8>4[8:1]*q4[8:1],8,{16}6,5,{8}7,48,3,{4}7-2[8:1]b/2,3b/7,
(210)
{16}37,,4,8,4,8,4,8,5,1,5,1,5,1,5,1,4,8,4,8,3,1,3,1,2,2,2,2,{4}2-5[8:1],
(215)
2/6-2[8:1],6/3-8[8:1],3/1V75[8:1]*p5[8:1],1,{16}3,4,{8}2,15,26,{4}7-2[8:1]b/3,3b/7,
(220)
{16}4/8h[16:1],,5,1,5,1,5,1,6,2,6,2,6,2,6,2,5,1,4,8,3,7,2,6,1,1,1,1,{4}1-5[8:1],
(225)
1b/6b-2[8:1],6/3-7[8:1],3/8q5[8:1]*v5[8:1],8,{16}6,6,{8}6,48,26,{4}7-2[8:1]b/3,3b/7,
(230)
3bv8[8:1],3/7^4[8:1],7/1v4[8:1]*p5[8:1],1,{16}3,3,{8}3,15,26,{4}7-2[8:1]b/3,3b/7,
(235)
{8}8b-4[8:1]/4b,8,8/2-5[8:1],2,2/7-4[8:1],7,7/3-8[8:1],3,3/5-1[8:1],5,52,2,
(220)
{16}8b/2b,,,3b/7b-2[12:1]b,,,{1}4b/7b,,,,E

Re:MASTER


  • 追加しました。修正等ありましたらよろしくお願いします。 -- けもがみ (2024-03-29 00:13:16)
名前:
コメント:

タグ:

+ タグ編集
  • タグ:
最終更新:2026年04月12日 09:14