BASIC
ADVANCED
EXPERT
(198.22)
{4},,,,4>6[4:11]/5h[4:22],,,,{1},,,{1}6q4[4:5],,
{16}4,5,4,5,4,5,4,5,4,,,,3/6,,3h[8:5]/6h[8:5],,{8},,,,,,1/8,,2b/7bh[4:11],,8,8,,5,5,,2x,,8,8,,5,5,,2x,,8,8,,5,5,,2/4,,4/5,,7/5,,1/8,,2bh[4:3]/7b,,1,1,,4,4,,5h[4:3]/7x,,6,6,,4,{4}4-8b[16:1],,,,,,,,,{1}7<3[4:4],,2q6[4:4],,7>5[4:7],,Chf[1:1],{4},,,1b/8b,7/3,{8}4/6,5,3,3,2/4,,2/6,,3/5,4,6,6,7/5,,3/7,,4/6,5,3,3,2/4,,1-5[16:1]/7-5[16:1],,,,2-4[16:1]/8-4[16:1],,,,7/5,,2/6,6,4,4,7,7,2/6,2,8,8,1,1,8/2,,7h[4:1]/5h[4:1],,,7/5,,2/4,,3/6,,1b/8b,1b>4[4:1]/8b<5[4:1],,,,,,4h[8:7],,{16}A1,B1,C,B5,A5,,{8},,6h[1:1],,,{16}A8,B8,C,B4,A4,,{8},,3h[1:1],,,{16}A2,A1,A8,A7,A6,,{8},,5h[8:7],,,{16}A7,A8,A1,A2,{8}A3,,,,8/2,,3,3h[4:1],,4>6[8:4],,,,,,,{16}2h[16:3],,,3h[16:3],,,{8}4,4,,5/6,5/6,,2/3,,8bpp3[8:5]/7bp4[8:5],,,,,,,,,2/8x,2/8x,2/8x,8xh[8:7]/2-5-7-4[8:5],{4},,,,{16}3/5,,,4/6,,,{8}8,1x/7,1x/7,1x/7,1xV35[8:3]/7,,,,,{6}6xh[6:1],5xh[6:1],7xh[6:1],3xh[6:1],4xh[6:1],2x,{8}7,6,5,7,6,5,7,6,5,7,6/4,,2,3,4,2,3,4,2,3,4,2,3/5,,
{16}7h[16:3],,,6h[16:3],,,5h[16:3],,,4h[16:3],,,3h[16:3],,,2h[16:3],,,1h[16:3],,,8h[16:3],,,7h[16:3],,,6h[16:3],,,5,,2x,8,2x,8,2x,8,2x,8,2x,8,2x,8,2x,8,2x,8,{4}1bxw5[4:4],,,,,,,,{1}4>5[4:11],,,,4>5b[4:11],,,,{4}3h[1:2],,,,E4,,E5,,6h[1:2],,,,E6,,E5,,B3/B4,,B5/B6,,B2/E3,,B7/E7,,1>4[1:1]/8<5[1:1],,,,,,,,{12}3x,4,3,4x,,,6x,5,6,5x,,,2x,1,2,1x,,,7x,8,7,8x-4[12:1],,,
{8},,2xb/6xb,,3-5[8:1],,6x,,7-4[8:1],,3x,,2-6[8:1],,8x,,17,,35,35,,1/2qq6[8:5],,7x,,,,,,,87,,56,4,3,2,{16}1h[16:3],,,4h[16:3],,,3,,4,,5,,6,,7,,8h[16:3],,,5h[16:3],,,6,,{8}75,,3,24,,87,16,,12,83,,45,63,,1b/8b,,2-4[16:1],,6-8[16:1],,1-5[16:1],,6,,7-5[16:1],,3-1[16:1],,8-4[16:1],,3,,2h[4:1],,4h[4:1],,6h[4:1],,8h[4:1],,1,1,7,7,3,3,54,,6-4[8:1],,2,2-6[8:1],,8,8-4[8:1],,3,3h[8:3],,5,5,,2/6,,Chf[4:4],,,,,,,,E8/B7/B8/E1/B1/E2/B2,,,,,,,,
{16}2,1,2,1,2,,7,8,7,8,7,,2,4,2,4,2,,7,5,7,5,7,,36,,,,18,,,,2,1,2,1,2,,7,8,7,8,7,,3,1,3,1,3,,6,8,6,8,6,,2x/7x,,,4x/5x,,,1x/8x,,{4},A7/E7/A6/B7/B6/Cf/B2/B3/E3/A2/A3,,,{8}1,2,3,4,8,7,6,5,3h[4:1]/4-8[8:1],,,,6h[4:1]/5-1[8:1],,,,{16}2h[16:3],,,4h[16:3],,,5h[16:3],,,7,,,{8}1xb/8xb,,87,,35,,6,5,74,,12,,64,,3,4,25,2/5h[48:14],{6},3x,4x/6x,2x/5x,7x/4x,1x/5x,8xbqq5b[4:3]/4xbqq1b[4:3],,,,,,{1},,,{4},,{16}18,,,27,,,36,,{8}6h[2:1]/3,,4,3,2h[2:1],,6,7,8-3[8:1],,2-5[8:1],,7-4[8:1],,1-6[8:1],,8w4[2:1],,,,,,,,
{4}2h[4:3]/6h[4:3],,,,5b/3b-8[16:1],7-4[16:1],1-4[16:1],5-8[16:1],2-7[16:1],6-1[16:1],2-5[16:1],8-5[16:1],4-1[16:1],7-3[16:1],2-5[16:1],6-1[16:1],3-8[16:1],7-4[16:1],2-6[16:1],8<1[4:3],Cf,,,,1-5[16:1]/8-6[16:1],,3-1[16:1]/4-8[16:1],,{8}75,,34,34,,65,65,,24,24,,73,73,,8b/2b,,
{16}1x,,6,5,6,,1x,,6,5,6,,1x,,6,5,6,,3x/7x,,3x/7x,,,,8x,,3,4,3,,8x,,3,4,3,,8x,,3,4,3,,2x/6x,,2x/6x,,,,5h[16:3],,,3h[16:3],,,1h[16:3],,,7h[16:3],,,5h[16:3],,,2h[16:3],,,4h[16:3],,,6h[16:3],,,8h[16:3],,,2h[16:3],,,4x,,1,5,1,5,1,5,1,5,1,5,1,5,1,5,1,5,1,2,3,4,5,6,7,8,1,2,3,4,5,6,7,8,{1}5b/1bp8[4:7],,5p4[4:7],,C,,E
MASTER
(198.22)
{4}5,4,3,2,{1}1>7qq4[4:7]/8h[1:2],,,{4}5,4,3,2,{1}1q7q4[4:5]/5h[2:3],,
{16}4,5,4,5,4,5,4,5,4,5,4,5,{8}4,3b/6h[8:5],{2},{16}3,5,4,5,{8}1b,,
2-5[8:1]/4,,5,6-3[8:1],,1,2^5[8:1],,12,,6,7-3[8:1],,1,2^5[8:1],,
12,,7,8-4[8:1],,1,{4}2h[4:1],4h[4:1],6h[4:1],8h[4:1],1b,
{8}78,6,6,45,3,3,24,24,1-5[8:1],1,7-3[8:1],7,2-6[8:1],2,{4}5<3[1:1],{2}4b,,,
45,4h[2:1]/6h[4:3],{8},,5,5q2[2:1],{2},,5h[2:1]/3h[8:7],{8},,4,4p7[2:1],{2},,
4/6h[4:3],{8}5,,4,4h[8:5],{4},E4,E5,E6,{8}6,6,4,5,{4}3h[4:1],C,
{16}1,8,1,8,2,8,1,8,{4}2-5[8:1],5b,
6<3[8:3],{8}3,3<8[8:3],,8,8>5[8:3],,5,5<2[8:3],,2,{4}2,4,
3>6[8:3],{8}6,6>1[8:3],,1,1<4[8:3],,4,4>7[8:3],,7,{4}7,5,
4/6-1[8:1],3-6[8:1],7-3[8:1],1^4[8:1],18,{8}57,46,{16}3b/5b,,,1b/2b,,,{8}7b/8b,
16,1-5[8:1]/6,,{4}1b^4[8:1]/6b^1[8:1],1b/6b,3bx/8bx,{8}26,{4}26,45,18,
2h[4:1]/7,{16}7,8,1,2,3,4,5,6h[16:3],,,{8}3h[4:1],,5,
{16}53,2,1,8,7,6,5,4h[16:3],,,{8}6h[4:1],,5,
{16}56,7,8,1,2,3,4,5h[16:3],,,{8}3h[4:1],,7,{16}37,6,5,4,3,2,1,8,{4}73,
6h[4:1]/4,{16}4,5,6,7,8,1,2,3h[16:3],,,{8}6h[4:1],,2,{16}26,5,4,3,2,1,8,7,{8}62,,
17,{4}1/7-3[8:1],7/2-6[8:1],25,17,{8}26,{4}2V48[16:5]/6V48[16:5],,,
{8}17,17,17,1-5-2-6[8:5]/7h[8:7],{1},{16}8x,,,1x/7x,,,{8}2x/6x,
35,35,35,3/5h[4:1],,{16}4,4,{4}7b,{6}2h[6:1],4h[6:1],3,7h[6:1],5h[6:1],6,
{16}3,4,2,4,2,,6,5,7,5,7,,2,4,3,4,3,,7,5,6,5,6,,
2,1,3,1,3,,7,8,6,8,6,,3,4,2,4,3,,6,5,7,5,6,,
2,8,2,8,2,8,2,3,4,7,6,5,1,2,3,7,6,5,3,2,1,6,7,8,4,3,2,8,1,8,1,8,
2,4,3,5,4,6,5,7,1,8,2,7,4xw8[8:1],5x,3x,6x,{1}4x`Cf,,
4>6[4:5]/5h[1:3],,{24}B6,A6,,,,,{4},,,{24}B4,A4,,,,,{4},,,
{1}4<2[4:5]/3h[1:3],,{24}B2,A2,,,,,{4},,,{24}B4,A4,,,,,{4},,,
{1}3/6h[1:3],{24}A5,D6,,,,,{4},{24}D4,A4,,,,,{4},
{2}3h[2:3],,,B4/B5/E5,{1}1>8[4:5]/8<1[4:5],,Ch[1:1],{2},
{16}1,2,3,4,8,7,6,5,{12}3b,3,3,4,4,4,5,5,5,6,6,6,7b,7,7,8,8,8,
{6}1x/7x,3x/5x,4hx[12:5]/5hx[12:5],{4},{48},3bx/6bx,2bx/7bx,1bx/8bx,,,{8},
2x-5[8:1]/7x,,12,8,7-4[8:1]/4,,71,2,3-8[8:1]b,{16},5,{8}35,6,
7p3[8:1]/1,,2,1-5[8:1],,18,,3b/7hb[8:5],,{16}E5,E6,E7,E8,E1,E2,E3,E4,{8}E5,1b/8b,,
26,{16}3,5,4,6,5,,4h[8:1]/7h[8:1],,,5h[8:1]/8h[8:1],,,{8}47,
47,{16}6,4,5,3,4,,5h[8:1]/2h[8:1],,,4h[8:1]/1h[8:1],,,{8}52,
3b/4b,{16}6,5,7,,18,,2,4,3,,45,,6,5,7,,48,,1,2,1,,{8}3-8[8:1]/7-4[8:1],48,{4}37,
1b/5b,{12}5,1,1,6,2,2,7,3,3,4^1[4:1]/8,,,8,7,6,{16}5h[16:3],,,7h[16:3],,,{8}1h[8:1],
4h[4:1],,{12}1,4,4,8,3,3,7,2,2,6,1,1,5h[4:1],,,{16}2,4,3,4,{4}3-7[8:1],
3/6-4[8:1],6/1-5[8:1],{8}1/7^4[8:1],8,7/3-8[8:1],,3/6^3[8:1],7,61,,
{16}2h[16:3],,,4h[16:3],,,3,,3,4,3,4,2,5,2,5,1,6,1,6,8,7,8,7,
{2}8-4[8:1],{16}8x,4x,8x,4x,8x,4x,8x,4x,
8,7,65,4,3,2,8,7,65,4,3,2,7,6,54,3,2,1,7,6,54,3,2,1,7^4[8:1],8,7,8,{4}7,
{16}A1,E2,E3,A3,A5,E6,E7,A7,A1,B1,C,B5,A8,E8,E7,A6,D1,D2,D3,D4,D5,D6,D7,D8,
{16}1x/8x,,,2x/6x,,,1x/7x,,{32}17,2,3,4,5,6,7,8,{4}1b/Cf/B4/B5,,,
{16}61,2,3,4,58,7,6,5,42,3,4,5,68,7,6,5,2h[8:1],,4,4,3,,6,6,
{8}5,71,35,46,{16}37,,2,1,,3,4,,7,8,,6,{8}5,47,
3b/8hb[4:1],,{16}1,2,3,4,2,3,4,5,1,2,3,4,7,6,5,4,8,7,6,5,7,6,5,4,2,1,2,1h[48:11],{6},
2-5[16:1],6-3[16:1],4-1[16:1],7-3[16:1],2-6[16:1],{1}8b<2[2:1]b,
2h[4:7]/6h[4:7],,4w8[4:3],{4},,1-5[8:1]/8-4[8:1],18,
36,{8}34,34,25,25,16,16,78,7,75,7,28,2,2h[8:1]/4h[8:1],,
{16}3,5,3,5,3,5,2,5,4,5,4,5,2,5,3,4,{4}5bx/1h[4:3],,,
{32}5,4,3,2,1,8,7,6,{2}5bw1[4:3]/4b,,,
{4}28,4/6V82[4:1],2V46[4:1],6,{8}1,2,{4}3V17[4:1]/8,7V53[4:1],3,{8}8,8,{4}7/1-5[8:1],
4/1^4[8:1],1/6h[4:1],{8}5-1[8:1],7,5^8[8:1],,25,3,{4}4w8[8:1],4,2x/6x,
5h[4:1],{8}3,4/2h[4:1],,6,5/7h[4:1],,4,3h[4:1]/5h[4:1],,,{4}1-5[8:1]/8-4[8:1],1b/8b,
{16}6,5,7,5,6h[8:1],,3,4,2,4,3h[8:1],,7,5,6,5,7h[8:1],,2,4,3,4,2h[8:1],,
7,8,7,6,7h[8:1],,2,1,2,3,2h[8:1],,6,5,6,7,6h[8:1],,3,4,3,2,3h[8:1],,
{16}8b,7,6,54,3,2,18,7,6,54,3,2,17,6,5,43,2,1,87,6,5,41,2,3,46,7,8,12,3,4,56,7,
2b,1,2,1,2b,1,2,1,3b,8,2,1,3b,8,2,1,3b,7,4b,7,5b,7,6b,7,
{32}8bx,1,2,3,4,5,6,7,8bx,1,2,3,4,5,6,7,
{1}8bxpp4[2:3]/4bxpp8[2:3],,3qq1>5[8:13]/7qq5<1[8:13],,,,E
Re:MASTER
- 追加しました。修正等ありましたらよろしくお願いします。 -- けもがみ (2024-03-29 00:05:22)
- いつもありがとうございます研究に助かります -- コ (2024-12-09 22:03:29)
- Expaertを追加しました2025/12/21 -- やあきましゅう (2025-12-21 12:10:31)
最終更新:2026年04月09日 19:00