BASIC
ADVANCED
EXPERT
MASTER
(180)
{2}2h[2:3]/4h[2:3],,,{4},24,{2}3h[2:3]/5h[2:3],,,{8},,35,35,
{2}4h[4:5]/6h[4:5],,,{8}46,,57,57,{1}5h[4:3]/7h[4:3],7xz3[8:3]/8xs4[8:3],
{8}3x/4x,,2,2,,3h[4:1]/4,,{2}2-4[8:1],{8}1h[8:3],,4,4,,34,,25,25,,{2}3-5[8:1]/4,{8},,
6h[4:1],,5,5,,56,,7,7,,6h[4:1]/5,,{2}7-5[8:1],{8}8h[8:3],,5,5,,
6h[4:1],,7,7h[4:1],,{2}8^5v3[8:3],{8},,1x,1x,,2x/8x,,
2x-4^3-8[8:3],,,8<4[8:3],,,4p2^8[4:3],,{1},
{8}6x-8^7-4[8:3],,,4>8[8:3],,,8V64[8:3],,,4p2[8:3],{4},,,
{8}1x-5[8:1],,7,7x-3[8:1],,5x,,4x>8[8:1],,,,,68,68,,,
25,3,4,{1}2q4[8:3]/5p3[8:3],{2}1h[8:3]/6h[8:3],{16},,
3,,3,4,3,,3,,3,4,3,,{4}34,{16}6,,6,5,6,,6,,6,5,6,,{4}65,
{16}3,,3,4,3,,3,,3,4,3,,{4}34,{16}6,,6,5,6,,6,,6,5,6,,{4}65,
{16}2,,2,4,2,,2,,2,4,2,,{4}24,{16}7,,7,5,7,,7,,7,5,7,,{4}75,
{16}3,,3,1,3,,3,,3,1,3,,{2}1v6[8:1]/3v6[8:1],{8},4b/8b,,,
1-4[8:1]/7,,1x,,56,4h[4:1]/8,,3,2,1-5[8:1],,16,7,8,,4,3/5-2[8:1],,
56,6-1[8:1],,3,3>7[8:1],,4,4,,6,56,48,,34,1/5-8[8:1],,
5x,,12,4/8h[4:1],,7,6,5-1[8:1],,25,3,4,,8,7/1-6[8:1],,
12,2-5[8:1],,7,7<3[8:1],,8,8,,2,12,4h[4:1]/7h[4:1],,,1b/2b,,
{32}8h[4:3]/2x,E3,B3,B4,{4}E5,{32}2x,E2,B1,B8,{4}E8,
{32}2x<6[8:3],E3,B3,B4,{4}E5,,,{8}3x/6x,3x/6x,,
{32}1h[4:3]/7x,E7,B6,B5,{4}E5,{32}7x,E8,B8,B1,{4}E2,
{32}7xV14[8:3],E7,B6,B5,{4}E5,,,{8}2x/5x,2x/5x,,
{32}8h[4:3]/2x,E3,B3,B4,{4}E5,{32}2x,E2,B1,B8,{4}E8,
{32}2x<6[8:3],E3,B3,B4,{4}E5,,,{8}3x/6x,3x/6x,,
{32}1h[4:3]/7x,E7,B6,B5,{4}E5,{32}7x,E8,B8,B1,{4}E2,
{32}7xV14[8:3],E7,B6,B5,{4}E5,,,{8}3b/6b,3b/6b,,
2h[8:11]/8,,,{2}A6/E6/E7,A8/E8/E1,{8}E2/E3,,,,,
7h[8:11],,,{2}A3/E4/E3,A1/E2/E1,{8}E8/E7,,,,,
2h[8:11],,,{2}A8/E8/E1,E2/E3,{8}A4/E4/E5,,,,,
6h[8:7],,,{2}A1/E2/E1,Ch[2:1],{8}B2/B3/B6/B7,,,,,
35,4,4,35,4,4,26,,64,5,5,64,5,5,73,,25,4,4,25,4,4,26,,74,5,5,74,5,5,73,,
{16}35,,4,4,4,,35,,4,4,4,,{4}35,{16}64,,5,5,5,,64,,5,5,5,,{4}64,
{16}24,,3,3,3,,24,,3,3,3,,{4}24,{16}28,,1,1,1,,{8}2/6v1[8:1],,3b,3b,,
3/4h[2:1],,2,2,3h[2:1],,1,1,4h[2:1],,1,2,3,,25,,
6/5h[2:1],,7,7,6h[2:1],,8,8,5h[2:1],,8,7,6,,74,,
4/3h[2:1],,2,2,4h[2:1],,5,5,3h[2:1],,1,1,4h[4:1],,6,,
5/6h[2:1],,7,7,{4}5<4[2:1],,,{8},D1f/A8/A1/E8/E1/E2,{2},
{16}3x,,3,4,3,,3x,,3,2,3,,3,,4x/5x,,6,,6,5,6,,6x,,6,7,6,,6,,54,,
2x,,2,4,2,,2x,,2,1,2,,2,,4x/5x,,7,,7,5,7,,7x,,7^4[8:1],8,7,,{4}5,
{16}2x,,2,1,2,,2x,,2,3,2,,2,,8x,,7,,7,8,7,,7x,,7,6,{8}7,8,1,
2x^4[8:1],4x^6[8:1],6x^8[8:1],8x^2[8:1],{4}2x>2[2:1],,,{8},3b/7b,,,8,,
{16}1x/6x,2,3,4,5,,7,8,7,8,7-5[8:1],,1,,7x,,8,1,2,3,4,,6,2,6,2,6,,71,,71,,
3,1,3,1,3,,6,8,6,8,6,,12,,38,,2x,3,4,5,6,7,8,1,{4}2x/6x,35,
{16}8x/3x,7,6,5,4,,2,1,2,1,2-4[8:1],,8,,2x,,1,8,7,6,5,,3,7,3,7,3,,28,,28,,
6,8,6,8,6,,3,1,3,1,3,,27,,27,,3,5,3,5,2,6,2,6,{4}1x/7x,2b/6b,
{24}8h[8:1]/1x,2,3,{4}4,{24}8h[8:1]/2x,3,4,{4}5,
{24}8h[8:5]/3x,4,5,{4}6V42[4:1],,,{8}3x/7x,3x/7x,,
{24}1h[8:1]/8x,7,6,{4}5,{24}1h[8:1]/7x,6,5,{4}4,
{24}1h[8:1]/6x,5,4,{4}3q8[4:1],,,{8}6x/2x,6x/2x,,
{24}1h[8:1]/8x,7,6,{4}5,{24}1h[8:1]/7x,6,5,{4}4,
{24}1h[8:5]/6x,5,4,{4}3V57[4:1],,,{8}6x/2x,6x/2x,,
{24}8h[8:1]/1x,2,3,{4}4,{24}8h[8:1]/2x,3,4,{4}5,
{24}8h[8:1]/3x,4,5,{4}6w2[8:1],,,{8}4b/8b,4b/8b,,
{1}1h[2:3]/8h[2:3],,{8}7h[4:1],,,{2}7h[2:1],2h[8:7],{2}7h[8:3],{8},
3h[4:1],,,{2}3h[2:1],6h[8:7],{2}3h[8:3],{8},
5h[4:1],,,{2}5h[2:1],4h[8:3],{8},{12}3x/6x,3x/6x,3x/6x,{4}4b/5b,
{16}25,,3,4,3,,25,,3,4,3,,25,,3,,74,,6,5,6,,74,,6,5,6,,74,,6,,
38,,2,1,2,,38,,2,1,2,,38,,2,,61,,7,8,7,,61,,7,8,7,,61,,2,,
45,,3,4,2,,45,,6,5,7,,45,,36,,45,,3,4,1,,45,,6,5,8,,45,,36,,
2,1,2,1,2,,6,5,6,5,6,,78,,34,,2,1,2,1,4,7,4,7,5,6,5,,{1}3b-6[8:1]/8b-5[8:1],,,,E
Re:MASTER
- 追加しました。修正等ありましたらよろしくお願いします。 -- けもがみ (2024-03-29 00:10:56)
最終更新:2026年04月08日 22:36