BASIC
ADVANCED
EXPERT
MASTER
(173)
{12},,3x/6x,3xqq5[4:3]/6xpp4[4:3],,,,,,{2},,,
{4}3/6,2h[2:1],4,6h[2:1],4,2h[2:1],4,
{8}6,3/5,3/5,,
{4}7h[2:1],5,3h[2:1],5,7h[2:1],5,
{8}3,2/8,2/8p3[4:1],,,,,,A2/B2/E3,,,1,1-4[8:1],,,,5-1[8:1]/6-8[8:1],,,,,8,8,,1/7,1/7,,3,4,5,6,,
{4}5/7,2/4,2h[4:1],4h[4:1],
{8}5,5,,7,7h[4:1],,
{4}5h[4:1],4h[4:1],2h[4:1],5,3/4,
{8}2h[4:1]/5h[4:1],,,2/5,,6,6,4,4,,
{4}3/7,A6/D7/E7,B4/B5/C,A3/D3/E3,1b,
{8}2,2,4,4,3,3,5,5,4,3,2,1h[4:1],,8,1/8,,7,7,5,5,6,6,4,4,5,6,7,8h[4:1],,1,1/8,,2h[8:1]/4h[8:1],,5h[8:1]/7h[8:1],,2/4,2/4,,5/7,5/7,,
{4}6h[4:1],8h[4:1],1h[4:1],3h[4:1],5,
{8}2h[4:1]/6h[4:1],,,2/6,,7,7-3[8:1],,
{4}1-5[8:1],8h[4:1],6,4/6,2h[4:1]/4-8[8:1],,3>8[8:1]/7<4[8:1],,1bx/5bx,4/6,7-4[8:1]/8-4[8:1],7/8,
{8}3,3,3/4,,5/2-4[8:1],,6-8[8:1],,2,2,1/2,,1-5[8:1]/2-5[8:1],,1/2,,6,6,5/6,,4/7-5[8:1]b,,3-1[8:1]b,,7,7,7/8,,5,5,4/6,,
{2}3-1[8:1]/5-7[8:1],3>1[8:1]/5<7[8:1],3-1[8:1]/5-7[8:1],
{8}3/5,3/5,5/3-6[8:1],,7-2[8:1],,4,,3,3,2>5[8:1]/6<1[8:1],,,,
{4}4x/8x,1-5[8:1]/2-4[8:1],1/2,
{8}6,6,5/6,,
{4}7/4-8[8:1],6-3[8:1],2-6[8:1],7,7-5[8:1]/8-4[8:1],7/8,
{8}3,3,3/4,,
{4}2/5-1[8:1],3-6[8:1],7-3[8:1],2,
{8}1,1,2/8,,
{2}4-2[8:1]/6-8[8:1],4>2[8:1]/6<8[8:1],4-2[8:1]/6-8[8:1],
{8}4/6,4/6,4/6-3[8:1],,2-7[8:1],,5,,6,6,3>8[8:1]/7<4[8:1],,,,
{4}1v4[8:1]/5-8[8:1],,,,4x/6x,7h[2:1],5,3h[2:1],5,7h[2:1],5,
{8}3,4/6,4/6,,
{4}2h[2:1],4,6h[2:1],4,2h[2:1],4,
{8}6,3/5,3/5,,
{4}1h[4:1]/7h[4:1],,2/6,3/5,7h[2:1],1,
{8}3,4/6,4/6,,
{4}2h[2:1],8,6h[2:1],8,2h[2:1],8,
{8}6,3/5,3/5,,
{2}6<4[4:5],5,5,5,3>5[4:5],4,4,
{4}4,3x/5x,6<4[4:5],,
{2}5,5,5,
{4}4h[4:1],3h[4:1],2h[4:1],1h[4:1],8h[4:1],7h[4:1],6h[4:1],5p4[2:1],,,,3xh[4:1],5,2>5[4:1]/6<1[4:1],,,1h[4:1]/3h[4:1],,6h[4:1]/8h[4:1],,6/8,1/3,6/8,1b/8b,2>5[4:1],,6<1[4:1],,2>5[4:1],,7,4/6,5h[4:1],6h[4:1],7h[4:1],8h[4:1],1h[4:1],2h[4:1],3h[4:1],4,2h[4:3]/5h[4:3],,,,1-4[8:1]/8-5[8:1],,2bh[4:1]/7bh[4:1],,C/E6,E7,E8,E1,C/E2,E3,E4,E5,C/E6,E7,E8,E1,C/E2,E3,E4,E5,7h[1:1],E7,E8,E1,2h[1:1],E3,E2,E1,
{8}6,6,4,4,5,,
{4}3qq5[2:1]/6pp4[2:1],,,,3b/6b,1h[4:1]/2-5[8:1],2,
{8}6,6,5/6,,7-4[8:1]/8h[4:1],,7,,3,3,3/4,,
{4}2-6[8:1],8-4[8:1],3-6[8:1],7-2[8:1],4-1[8:1],5-8[8:1],2-5[8:1],7b,
{8}6,6,5/7,,
{2}2-5[8:1]/8-5[8:1],2>5[8:1]/8<5[8:1],2v5[8:1]/8v5[8:1],
{8}4/6,4/6,4/6-3[8:1],,2-7[8:1],,5,,6,6,3>8[8:1]/7<4[8:1],,,,
{4}1x/5x,7-4[8:1]/8-4[8:1],7/8,
{8}2,2,2/4,,1-5[8:1]/2-5[8:1],,1/2,,7,7,5/7,,
{4}7-3[8:1]/8-4[8:1],7/8,1-5[8:1]/2-6[8:1],1/2,7-4[8:1]b/8-3[8:1]b,7/8,
{8}2bx/5bx,2bx/5bx,2bx/5bx,,3,3,2/4,,
{2}1-4[8:1]/7-4[8:1],1>4[8:1]/7<4[8:1],1v4[8:1]/7v4[8:1],
{8}3/5,3/5,5/3-6[8:1],,7-2[8:1],,4,,3,3,2>5[8:1]/6<1[8:1],,,,
{4}4v1[8:1]/8-5[8:1],,,,2x/8x,1>5[4:1],5<1[4:1],1>5[4:1],5<1[4:1],1,5,
{8}3/7,3/7,3/7,,
{4}8<4[4:1],4>8[4:1],8<4[4:1],4>8[4:1],8,4,
{8}2/6,2/6,2/6,,
{4}1>5[4:1],5<1[4:1],1>5[4:1],5<1[4:1],1,5,3/7,6h[4:1],8h[4:1],1h[4:1],3h[4:1],5qq5[2:1]*pp5[2:1],,,,4x/6x,5<1[4:1],1>5[4:1],5<1[4:1],1>5[4:1],5,1,
{8}3/7,3/7,3/7,,
{4}4>8[4:1],8<4[4:1],4>8[4:1],8<4[4:1],4,8,
{8}2/6,2/6,2/6,,
{4}5<1[4:1],1>5[4:1],5<1[4:1],1>5[4:1],5,1,3/7,2h[4:1],4h[4:1],5h[4:1],7h[4:1],1pp5[2:1],6,,
{8}7,8bx-4[8:1],,8x,
E
Re:MASTER
(173)
{12},,4x/5x,3x,4x,2x,6x,5x,7x,Ch[2:1],,,{2},
{8}5/7,6,2/4,3,4/5,4/5,2b/7b,,
{4}2h[4:1],3h[4:1],4h[4:1],5h[4:1],
{8}4h[4:1],,3h[4:1],,1,1,2/8,,
{4}7h[4:1],6h[4:1],5h[4:1],4h[4:1],
{8}5h[4:1],,6h[4:1],,8,8,7/1q5[8:3]*p5[8:3],,
{2},4h[4:3]/6h[2:1],
{4},5-7[8:1],5-1[8:1],8,
{4}7h[4:1],8,1,2-4[8:1],
{4}8-4[8:1],3,2h[4:1],1,
{8}3/4,,2,,4,4,3,,
{8}5/6,,7,,5,5,6,,
{4}2/7,1-5[8:1]/8-4[8:1],,3/6,
{8}7,7,5,5,4,4,2-4[8:1],,
{4}2-8[8:1],2-4[8:1],2-6[8:1],2,
{16}1x/7x,,6,5,6,,3,4,3,,6,5,7,,3,4,
{8}2,1,8,7h[4:1],,5,6,7,
{16}2x/8x,,3,4,3,,6,5,6,,3,4,2,,6,5,
{8}7,8,1,2h[4:1],,1,8,7,
{8}5/6,,2/3,,7/8,7/8,,4/5,
{4}4h[8:1]/5h[8:1],3h[8:1]/4h[8:1],2h[8:1]/3h[8:1],{8}1/2,1/2,
{4}3<5[8:1]/8<6[8:1],,1x/2x,7/8,
{8}2,2,4,4,5,5,7,7,
{4}1-3[8:1],7-5[8:1],8-4[8:1],,
{4}A5/A6f/D6,A3f/A4/D4,E1f/E2/E8,4b/5b,
{8}4/6,7,3/5,2V48[16:3],4,2,6,6,
{8}7-1[8:1],7,2-6[8:1],2,4-1[8:1]*-7[8:1],4,,,
{8}3x/5x,2,4/6,7V51[16:3],5,7,3,3,
{8}2-8[8:1],2,7-3[8:1],7,5-2[8:1]*-8[8:1],5,,,
{8}3x/7x,6,4/5,3,2-4[8:1]/6-8[8:1],1/5,,,
{8}1-5[8:1]/2-5[8:1],3,,,7-4[8:1]/8-4[8:1],6,,,
{8}3h[8:1]/5h[8:1],,4h[8:1]/6h[8:1],,7/8,6,4/5,3,
{8}2/4,2/4,3/5,3/5,6/4w8[8:1],4/6,,,
{8}5x/6x,8,3/4,1-5[8:1],4-7[8:1],1,4,2,
{8}8x<5[8:1],4,8>3[8:1],4,8,4,6,2,
{8}3x/4x,1,5/6,8-4[8:1],5-2[8:1],8,5,7,
{8}1x>4[8:1],5,1<6[8:1],5,1,5,2,6,
{8}5x/7x,8,2/4,1,3-1[8:1]/7-5[8:1],4/8,,,
{8}7x-4[8:1]/8x-4[8:1],6,,,1x-5[8:1]/2x-5[8:1],3,,,
{8}8,8h[8:1],6,6h[8:1],5,5h[8:1],3,3,
{8}2/4,2/4,1/5,1/5,2/6,3/7,4/8,5,
{4}4v2<7[2:1],,,4bx,
{4}6<1[4:1],1>4[4:1],4<7[4:1],7>2[4:1],
{4}2>5[4:1],5<8[4:1],8-4[4:1],4,
{4}3>8[4:1],8<5[4:1],5>2[4:1],2<7[4:1],
{4}7<4[4:1],4,1,3pp5[8:3]/7qq5[8:3],
{4},,4x/6x,4x/6x,
{4}7/3>8[4:1],8<5[4:1],5-1[4:1],8,
{4}6<1[4:1],1>4[4:1],4q8[4:1],8q4[4:1],
{4}4<7[4:1],7-3[4:1],3,1b,
{2}2h[1:1],E4,
{4}5h[1:1],B3,B4,,
{8}2x,2xh[8:7],,,E4,,,,
{4}3,4,5h[4:1],1b,
{2}7h[1:1],E6,
{4}4h[4:5],E7,E6,E5,
{4}5xh[4:1],,7,6,
{4}5,4,3,2/7,
{4}4h[2:1]/5h[2:1],,,1>3[8:1]/8<6[8:1],
{8},,1/8,,2/7,2/7,,,
{8}5/6x,4/7x,,,3x/4,2x/5,,,
{12}E8,E7,E6,E4,E3,E2,5xh[4:1],,,B1/E1f,,,
{8}7,,6,,5/7,5/7,,4,
{8},3,,2/4,2/4,,1/8,,
{12}6,5,6,3,4,3,7,5,6,2,4,3,
{12}8,5,6,1,4,3,8<5[8:1],,,1>4[8:1],,,
{1}C,
{8}7b/8b,1b/6b,,1b/2b,3b/8b-4[8:1]b,,,,
{4}3/5p8[2:1],3,3,3x,
{4}3/7p2[2:1],3,3,4x,
{4}5/1p4[2:1],5,5,5x,
{4}5/3p6[2:1],5,5,4x,
{4}3/5-7[8:1],3,2/8-4[8:1],2,
{4}5/1-3[8:1],5,6/4-8[8:1],6,
{8}1/7,1,2/6,2,3/5,5,4/6,6,
{8}3/7,3/7,2/6,2/6,1-4[8:1]/5-8[8:1],,1b/5b,,
{8}3x/5x,1,4/6,8-4[8:1],4>1[8:1]*<7[8:1],8,,,
{8}6x-1[8:1],5-2[8:1],6,5,8-5[8:1]*-3[8:1],1,8,,
{8}4x/6x,8,3/5,1-5[8:1],5<8[8:1]*>2[8:1],1,,,
{8}3x-8[8:1],4-7[8:1],3,4,1-4[8:1]*-6[8:1],8,1,,
{8}3x/7x,4,5/8,7,2-5[8:1]/6-1[8:1],1/5,,,
{8}3x-8[8:1]/4x-8[8:1],2,,,5x-1[8:1]/6x-1[8:1],7,,,
{8}2xh[8:1]/8xh[8:1],,4h[8:1]/6h[8:1],,7/8,1/6,2/5,3/4,
{8}2x/5,3,4/7x,6,5/4xw8[8:1]b,3x,Cf,,
{8}5/6x,8,3/4<7[8:1],1>4[8:1],4x-8[8:1],,,,
{8}7x-1[8:1],1,7-4[8:1],5,7x,1,2/6,5,
{8}3x/4,1,6/5>2[8:1],8<5[8:1],5x-1[8:1],,,,
{8}2x-8[8:1],8,2-5[8:1],4,2x,8,3/7,4,
{8}5/6,7,2/8,3,4-1[8:1]/8-5[8:1],1/5,,,
{8}2xv5[8:1]b/6x-1[8:1]b,3/7,,,3x-8[8:1]b/7xv4[8:1]b,2/6,,,
{8}7,7h[8:1],5,5h[8:1],3,3h[8:1],1,1,
{16}2/8,,6,5,7,,3,4,2,,{8}1/5,3/7,5pp5[8:3],
{4}4v1[4:1],,,C,
{4}1/7-5[8:1],7x/3-1[8:1],3x/8-6[8:1],8x/4-2[8:1],
{8}1,8,7,6,3/5,2,1,2,
{4}8/3-1[8:1],3/7-5[8:1],7/4-2[8:1],4/8-6[8:1],
{8}5,4,3,2,1/7,6,5,6,
{4}4/7-5[8:1],7/3-1[8:1],3/8-6[8:1],8/4-2[8:1],
{8}1,8,7,6,5w1[8:1],,5x,,
{4}7x/3x<6[4:1],6<1[4:1],1>4[4:1],4qq4[8:3]*pp4[8:3],
{4},,2x/6x,1/7,
{4}8/2x-5[8:1],2/6x-1[8:1],6/2x-6[8:1],2/8xqq5[8:3],
{8}4x,3,2,1,8x,6,5,6,
{4}3/7x-4[8:1],7/3x-8[8:1],3/7x-3[8:1],7/1xpp4[8:3],
{8}5x,6,7,8,1x,3,4,3,
{4}2/5x-8[8:1],5/1x-4[8:1],1/6x-2[8:1],6/4xqq1[8:3],
{8}8,7,6,5,4xw8[8:1],,4x,,
{4}2/6>3[4:1],3>8[4:1],8<5[4:1],4qq4[4:1],
{8}4pp4[4:1],,,,,2x-5[8:1]/6x-1[8:1],,2b/6b,
E
最終更新:2026年07月09日 21:43