BASIC
ADVANCED
EXPERT
MASTER
(204){1}8<6v4[2:1]*>2v4[2:1],1-3v5[2:1]*-7v5[2:1],{2}8<4[4:1],2,{8}1/8,,,5/7,,2,4,,1h[1:1],,4,4,5,5,6,6,7h[4:3],,4,4,3,3,2,2,{16}2/5,,3,4,3,,6,5,6,,2,4,2-6[8:1],4,2,4,{4}2,,{16},,1,8,3bx/7bx,,,,{8}2,3/4,7,6/5,1,2/4,8,7/5,3,2/4,6,5/7,4,3/5,2,3/4,5,4/6,7,5/6,4,3/5,2,3/4,1,2/4,3,4/6,7,5/6,8,7/5,8,1/8,2,3/5,6,4/6,3,5/3,{16}2,,3,4,3,,2/5,,,,4/7,,,,3/4,,
{8}3-8[8:1]/4,,7h[2:1]/3bx,,,,1,,4,,3/5,3/5v3>1[8:3]*v7>1[8:3],,,,,,,8-4[8:1],8,1,1,5,5,2h[4:1],,4,4,3/5,3/5,,1hx[4:1]/6hx[4:1],,,2-4[8:1],,8h[4:1],,5,4,3,2h[4:1],,8,8,1>3[8:1]/7<5[8:1],,,,2/6,2/6,,3/7,2,1x-5[8:1]/8x-4[8:1],,,,,,{16},,1,8,2/7,,,,{8}3/5,6,2,7,4/7,3,8,1,1/4,5,3,6,5/6,4,7,2,2/8,6,3,5,2/5,1,8,7,5/6,4,3,{16}2,5,2,5,2<7[8:1],5,2,5,2,,{8},4,4,,1/2,,3/4,,7/8,7/8,1/6,,{24}E3,B3,B4,E5,,,E7,B6,B5,E5,,,{4}1bh[4:3],,,8v3V17-4[2:1],,,,
{8}1b,2b/8bqq8[8:1],,3x,3x,,1,1>5[4:1],,5<1[4:1],,1>5[4:1],,5,,1,,3bx/7bx,,2/6,2/6,,8,8<4[4:1],,4>8[4:1],,8<4[4:1],,4,,8,,3>7V13[1:1]/6,,5,5,,4,,5,,6,,{16}7,,,6,5,,,5/7,,,4/8,,4/8w4[8:1],,,,{4}8b,,3-8[8:1],5,6-1[8:1],4,{8}5,5,,4/7,4/7-3[8:1],,1/7,,1/4-8[8:1],,1/4,,1-5[8:1],,1/6,,4/7,4/7,,5/2,5/2-6[8:1],,8/2,,8/5-1[8:1],,8/5,,8v5[8:1],,3,,{4}4b-2[8:1],4-7[8:1],4-1[8:1],4-6[8:1],4-8[8:1],4-7[8:1],4-1[8:1],4,2/8,{8}4/7h[2:1],,5,5,5-1[8:1],5,6,,5/2h[2:1],,4,4,4-8[8:1],4,3,,3/7h[2:1],,5,5,5,5,5,5,4/6,4/6,3/7,3/7,{16}2,8,2,8,1-5[8:1],7,1,7,{1}1b,{4},,,3/7,
{8}2-5[8:1]/8,1,7-4[8:1],8,2-5[8:1],1,7-4[8:1],8,2-6[8:1],1,8-4[8:1],1,2,2,1/5,6,7-4[8:1],8,2-5[8:1],1,7-4[8:1],8,2-5[8:1],1,7-3[8:1],8,1-5[8:1],8,7,6,7/4>1[8:1],,6,,2/5,2-7[8:1]/5,4,4,5<8[8:1],,3/5,,7/4,7-2[8:1]/4,5,5,4w8[8:1],,,,2x/6x,2x/6x,7,{16}7,5,6,5,6,,{8}4/7,3,3,2/4,1-4[8:1],1,5,,6-1[8:1],6,4,,3-8[8:1],3,5,,6-1[8:1],6,4,,3-8[8:1],3,5,,7-4[8:1],7,1,,2-5[8:1],2,8,,7/8,7/8,{16}1/6,,3,4,3,,2/5,,{4}2-6[8:1]/5,8-4[8:1]/2,3-1[8:1]/8,6-3[8:1]/3,2-7[8:1]/6,6-1[8:1]/2,4>1[8:1]/6,8<5[8:1]/4,2/8,{16}1/6,,7,8,7,,6,,4/5,,3,,1<6[8:1]/2>5[8:1],,,,{4}A1/A2/D2f,,,
{4}1-4[8:1]b/8-5[8:1]b,1b/8b,3>6[4:1]/6,6<3[4:1],3,{8}6,,5,5,4/6,,1,1,2/8,,{4}7>4[4:1],4>7[4:1],6,5,2<5[4:1],5<2[4:1],3,4,7>3[4:1],3<7[4:1],7>3[4:1],3<7[4:1],7>3[4:1],3<7[4:1],7,{8}3,,4/8,4/8,3,{16}2,4,2,4,2,,1/5,,,3/7,,,4/8,,4/8,,,2/6,,,1/5,,1bx>3v5[4:5]*<7v5[4:5]/5bx,E
Re:MASTER
- MASTER譜面を追加しました。修正等ありましたらよろしくお願いします。 -- Sugar (2026-04-15 22:11:58)
最終更新:2026年04月15日 22:11