アットウィキロゴ

IF:U

アーティスト MisoilePunch♪

BPM BASIC ADVANCED EXPERT MASTER Re:MASTER
190 6 8 12+ 14+ -

EXPERT MASTER Re:MASTER
譜面制作者 Jack The Dove -

BASIC


ADVANCED


EXPERT


MASTER

(190)
{4},,,{32},,,,,,6,5,{2}4V28-6[4:5],,,E5,5V71-3[4:5]/3,B3/E4,,E6/B6,4-2^7-5[4:5]/5,E1/B8/B1,,E5/B5/B4,
{16}7b/1b,,2,8,3,7,4,6,3,5,2,6,{8}1-5[8:1],7-3[8:1],1b,7b,,4b/6b,,27,2^5[8:1]/7,,
2,8-4[8:1],2,8,1-5[8:1],8,1,7^4[8:1],1,7,1-5[8:1],7,1,{16}6,4,7-4[8:1],3,8,2,
{8}7,1q5[8:1],7,1,8p4[8:1],1,8,2-5[8:1],8,2,8-4[8:1],2,8,{16}2,5,3^8[8:1],6,4,7,
{8}3,5-1[8:1],3,5,4-8[8:1],5,4,6^1[8:1],4,6,4-8[8:1],6,4,{16}7,1,6-1[8:1],2,5,3,
{8}6,4-7[8:1],8,4,1-6[8:1],2,1,3-8[8:1],4,3,5-1[8:1],1,5,2,{4}8w4[8:1],{1}8b<1[4:5],,
{16}A8,E1,E2,A2,E8,B8,B2,E3,E7,B6,B4,E4,A6,E6,E5,A4,
D8,D7,D6,D5,D4,D3,D2,D1,E3/B3,E7/B7,E1/B1,E5/B5,E2,E8,E4,E6,{2}Cf,,,

27,3h[4:3],{4}4,6h[4:3],{8},5,{4}5,1b,2,2h[4:3],,1,7h[4:1],
{6}8x,7x/6x,6x/5x,{4}5x/4x,3/4w8[8:1],4b,6/5w1[8:1],5b,34,{8}35,2-7[8:1]/6-3[8:1],,2b/6b,,,
8,1,24,{16}3,4,3,,57,,6,5,6,,4,5,3,4,2h[8:1],,4,1h[8:1],,5,8h[8:1],,6,,6h[8:1],,7,8,1,2,
35,,4,6,3,7,2,8,{8}1,2/8-3-6-1[2:1],46,2b/8b,{2},
{16}2h[16:3],,,3h[16:3],,,4,,45,,6,5,7,,18,,3,3,4,,6h[8:1],,5,,45,,3,4,2,,18,,6,6,5,,45,,3,,
28,,6,5,6,,71,,3,4,3,,56,,2,1,2,,34,,7,8,7,,1,8,2,7,3,6,4,5,
{32}4b,5,6,7,8,1,2,3,4,5,6,7,8,1,2,3,4,5,6,7,8,1,2,3,4-8[8:1]b,5,6,7,8,1,2,3,{1}4,,{2},

E4/E6,{32}B6/2h[8:7],B5,B4,E4,{4},,,{8}D2/E2,{1},{32}B3/7h[8:7],B4,B5,E6,{4},,,{8}D8/E8,{2},8,
{4}1x^4[2:1],,,7,8^5[2:1],,,2,{2}1s5[4:3],,,45,{8}3,4,5,6,4,4,6,5,3,4,5,5,4,3,5,6,
3h[8:3],6,5,4,3h[8:3],4,5,6,6h[8:3],3,4,5,6h[8:3],5,4,3,34,34,25,25,16,16,{4}7-3[8:1]/8,{1},
{16}8,4,8,4,7,3,7,3,6,2,6,2,5,1,5,1,{24}6,7,8,1,2,3,6,7,8,1,2,3,6,7,8,1,2,3,6,7,8,1,2,3,{1}Cf,
{8}45,{4}1/8w4[8:1],8b,,{8},

5^7-3[8:3],,3,3^5-1[8:3],,1,1^3-7[8:3],,7,7q5[8:3],,4,{2}4,
{16}7b-4[16:1],8,7,8,7,,2-5[16:1],1,2,1,2,,7^4[16:1],8,7,8,7,,2-6[16:1],1,2,1,{8}2,7,57,45,24,
{16}3-8[16:1],4,3,4,3,,6-1[16:1],5,6,5,6,,3^8[16:1],4,3,4,3,,6,5,6,5,{8}6,4,35,26,17,
{16}6,8,5,1,4,2,1,3,8,4,7,5,{24}6,4,6,4,6,4,{8}6bx-1[8:1],2bxqq5[8:3]b,6bx,2bx`Cf,{4},,48,{16},,
2b-5[16:1],8,2,8,2,,7^4[16:1],1,7,1,7,,2-6[16:1],8,2,8,{8}2,7,75,18,24,
{16}3^8[16:1],5,3,5,3,,6-1[16:1],4,6,4,6,,3^8[16:1],5,3,5,3,,6-2[16:1],4,6,4,{8}6,3,13,45,68,
{16}7-4[16:1],8,6,8,7,,2-5[16:1],1,3,1,2,,7^4[16:1],8,6,8,7,,2,1,3,1,{8}2,8,17,26,35,
{16}4,6,5,6,5,6,3,5,4,5,4,5,{32}1-6[16:1],2,3,4,8-4[16:1],7,6,5,{8}1b-3[16:1],8b<1[8:3]b,1b,8b,{4},4x,

{8}47,8,1,25,3,4,51,6,7,18,2,3,45,45,36,,{4}Chf[8:7],,,{8},A3/D3/D4/E3/E4/B3/A7/D7/D8/E7/E8/B7,,,
2x/8x,,{16}2x/8x,,,4x/6x,,,{8}1hx[8:3]/5hx[8:3],,,{32},2bx/6bx,3bx/7bx,4bx/8bx,{8},3x/7x,3x/7x,
2-6[8:1],2,1-5[8:1],1,8-4[8:1],8,7-3[8:1],7,6-2[8:1],6,5-1[8:1],5,4-8[8:1],4,3-7[8:1],3,2,2,
18,{16}1-5[8:1]/8-4[8:1],27,{8}36,1b/8b,,37,8,1,{16}2,2h[8:1],,4,4h[8:1],,6,6h[8:1],,8,{8}8h[8:1],1,28,
{16}7,7h[8:1],,5,5h[8:1],,3,3h[8:1],,1,{8}1h[8:1],8,7h[24:7]/1,{6},
{48}2b,D3,A3,D4,A4,,,,6b,D7,A7,D8,A8,,,,3b,E3,B2,B1,E1,,,,7b,E7,B6,B5,E5,,,,8b,D1,A1,D2,A2,,,,{1}4b>5[2:1]b,
{16}25,,3,4,2,6,5,7,1,8,2,7,3,6,4,5,{4}4h[4:1],2h[8:5],6h[8:3],,
{24}2bpp8[8:11]b/6b,15,84,73,6qq8[24:29]/2,,{1},{4},,,{2}2bV85[8:7]/8bV25[8:7],,,

{16}4,5,{8}4,2b/7b,,{16}3x,4,3,6,5,6,2x,4,2,7,5,7,2x,4,3,7,5,6,1x,4,3,8,5,6,4x,5,3,6,2,7,1,8,
{32}1bh[32:3]/7b,6,5,4,,,7bh[32:3]/1b,2,3,4,,,2bh[32:3]/8b,7,6,5,,,8bh[32:3]/2b,3,4,5,,,
1bh[32:3]/7b,6,5,4,,,7bh[32:3]/1b,2,3,4,,,2bh[32:3]/8b,7,6,5,,,8bh[32:3]/2b,3,4,5,,,
{8}7b-3[8:1]/1b,3bw7[8:1]b/5b,7b/1b,{1}Cf,,,,E

Re:MASTER


  • 追加しました。修正等ありましたらよろしくお願いします。 -- けもがみ (2024-04-13 04:08:03)
名前:
コメント:

タグ:

+ タグ編集
  • タグ:
最終更新:2024年04月14日 00:26