BASIC
ADVANCED
EXPERT
MASTER
(195)
{1}1bx>8<1[4:13]/5bhx[2:7],,,{4},,,
17,{8}1,1,6,3,3,4,3h[8:1]/5h[8:1],,6,6,5,8,8,1,2h[8:1]/6h[8:1],,
{16}3x,5,3,5,3,5,3x,5,4,5,4x,5,4x,5,4x,5,4x,6,4,6,4,6,4x,6,5,6,5,6,5x-1[8:1],6,5,6,
{4}5bv2-4[8:3]*v8-6[8:3],,,4x/6x,
{8}3h[4:1],5,4,5,6h[4:1],4,5,4,3^8[8:1],3,4,5,6^3[8:1],6,1,,
2h[4:1],4,4,35,6h[4:1],4,4,35,{16}2bx/4bx,,,1bx/8bx,,,4bx/6bx,,7bx/5bx,,,8bx/1bx,,,4bx/3bx,,
{8}2h[4:1],5,4,5,6h[4:1],5,4,5,7^2[8:1],7,5,4,3^6[8:1],3,8,,
7,7h[8:1],5,5h[8:1],6,6h[8:1],3,3h[8:1],{16}4b,,,5b/6b,,,3b/7b,,1b/2b,,,1b/7b,,,2b/6b,,
{8}3,24,3,12,3,26,3,24,3,28,3,25,{16}3,4,{8}3,45,56,
7,68,7,62,7,46,7,6,{16}5/7-4[8:1],,,4,7,,1,,2h[16:3]/5,,,4,{8}2,35,
6,57,6,78,6,57,6,37,46,35,2,18,{16}8^5[8:1],1,{8}7,28,,
3/4x,34,45,45,56,56,{4}4/7-4[8:1],7/1-5[8:1],1/6-1[8:1],46,3/8<3[8:5],
1x,1,1,1,2/4V68[2:1],2,3,4,5/8h[4:1],4,{8}3,3,{16}2,4,2,4,
2h[8:1],,,1h[8:1]/3h[8:1],,,48,,7h[8:1],,,8h[8:1]/6h[8:1],,,51,,
{8}2/4-8[8:1],2,24,2,1/7-3[8:1],1,17,1,24,5,46,7,{16}2,1,{8}2,38,,7/4-2[8:1],7,74,7,6/1-5[8:1],6,61,6,
{16}4h[8:1]/7h[8:1],,,4h[8:1]/7h[8:1],,,47,,5h[8:1]/6h[8:1],,,5h[8:1]/6h[8:1],,,56,,
4h[8:1],,,4h[8:1],,,{8}3-5[8:1]/4,,,{16}6h[8:1],,,6h[8:1],,,{8}7-3[8:1]/6,,,
{16}2h[8:1],,,2-8[8:1]/3,,,,,{16}7h[8:1],,,7h[8:1],,,{8}6-1[8:1]/8,,,
{16}2h[8:1],,,2h[8:1],,,{8}3-8[8:1]/1,,,{16}6h[8:1],,,6h[8:1],,,{8}57,
57,5,46,6,53,3,24,4,15,1,26,6,37,3,84,8,{16}5,7,5,7,4,6,4,6,3,5,3,5,2,4,2,4,
1,2,3,4,6,7,8,1,5,4,3,2,8-4[8:1],7,6,5,{1}4/8bV64V28[4:15]`Cf,,,,
{8}5,,4,4h[2:1],,{2}6h[4:1],{8}4,35,3h[4:1]/5h[8:3],{2},{8}2h[8:5],,4,4h[8:3],{2},{8}3,4,5,6,4,5,6,7,
5h[4:1]/6,,6,5h[4:1],6,,56,,4h[4:1]/7,,7,4h[4:1],7,,47,,
5h[4:1]/6,,6,5h[4:1],6,,56,,4h[4:1]/5,,5,3h[4:1],4,,35,,
4h[4:1],6,6,3h[4:1],5,5,24,24,3h[4:1],5,5,4h[4:1],6,6,5h[8:1]/7h[8:1],,
{16}6,4,6,4,5,4,5,4,5,3,5,3,4,3,4,3,4,2,4,2,3,2,3,2,3,1,3,1,2V84[8:3],1,2,1,{2},{8},17,26,,
{16}6,5,6,,2,,2,4,,4,{8}5,5/6-2V83-5[2:1],4,{4}3h[16:7],,,{8}46,46,
{16}3,4,3,,7,,7,5,,5,{8}4,4/3-7V16-4[2:1],5,{4}6h[16:7],,,{8}35,35,
24,24,{16}3,4,,4,,4,{8}3,2h[8:1]/5h[8:1],,46,46,{16}7,5,,5,,5,{8}6,7h[8:1]/5h[8:1],,
46,46,{16}7,5,,5,,5,{8}4,4/3-6V47-1[16:9],5,{4}6h[4:3],,,1bx,
{4}2h[8:1]/4h[8:1],2h[8:1]/4h[8:1],3h[8:1]/5h[8:1],4h[8:1]/6<2[2:1],5h[8:1],5h[8:1],5h[8:1],5h[8:1],
5h[8:1]/6h[8:1],5h[8:1]/6h[8:1],4h[8:1]/5h[8:1],4h[8:1]/3>7[2:1],4h[8:1],4h[8:1],4h[8:1],15,
{8}26,35,{16}2,4,,4,,4,{8}3,2h[8:1]/6h[8:1],,37,46,{16}7,5,,5,,5,{8}6,7h[8:1]/3h[8:1],,
26,26,{16}3,5,,5,,5,{8}6,75,64,3x/5,{16}3,4x,2,,1/5x,,6,5x,{8}7,8x-3[8:1],3x,
{1}8/4h[1:1],{8}3-7[8:1],3,1-5[8:1],1,8,8,73,,
{16}2b,2,1,,38,,7,5,6,4,5,3,4,2,{8}3,12,38,47,{16}6,5,,5,{8}7h[8:1],1,1,
{16}7,7,8,,61,,2,4,3,5,4,6,5,7,{8}6,87,61,52,{16}2,4h[8:1],,3,2,1,8,7,6,5,
4,,35,,2,4,,56,,7,{8}8,1/2-6[8:1],3,2b/6b,7,{16}7,5,,43,,2,{8}1,8/7-3[8:1],6,
7b/3b,2,{16}2,4,,56,,7,{8}78,16,25,
{16}3h[8:1]/4h[8:1],,,1h[8:1]/2h[8:1],,,7h[8:1]/8h[8:1],,,5h[8:1]/6h[8:1],,,{4}2b/8b,
{16}7,8,6,,15,,3,34,,6,{8}65,47,36,25,4h[8:1],3,{16}7/1-5-3[4:1],71,{2},
{16}1,2,1,,84,,6,65,,3,{8}34,52,63,74,5h[8:1],6,{16}3/7,3h[16:3]/7h[16:3],{4},28,
{8}71,71,{16}2,4,,15,,3,{8}4,1h[8:1]/6h[8:1],,28,28,{16}7,5,,48,,6,5,,{4}2h[8:1]/8h[8:1],
{8}71,71,{16}2,4,,15,,3,{8}4,78,18,
{16}1hb[8:1]/2hb[8:1],,,5hb[8:1]/7hb[8:1],,,2hb[8:1]/4hb[8:1],,,5hb[8:1]/6hb[8:1],,,
{8}7b/8b-4[8:1],1,{1}2bh[4:15]/8bV63s7>5[2:7],,,,
{8}3,3,4,4,5,5,6,6,5,5,4,4,3,3,4,4,{16}3,5,3,5,3,6,3,6,2,7,2,7,2,8,2,8,
{32}2b,3,4,5,,,8b,7,6,5,,,1b,2,3,4,,,7b,6,5,4,,,{8}2b/8b,,
3b/5b,{16}2-5[16:1]b,8,2,8,2,,7,8,6,1,5,2,4,3,5b,,6-1[16:1]b,1,6,1,6,,2,3,4,5,8,7,6,5,
3b/4b,,2-5[16:1]b,1,2,1,2,,7,8,6,1,5,2,4,3,4b,,7,5,7,5,7h[8:1],,8,1,2,3,{8}4b/8b,8,
1b/2b,{16}3,4,2^5[8:1]b,,2,,{24}6,7,8,{8}1,1,28,3b/7b,{16}6,5,7^4[8:1]b,,7,,{24}3,2,1,{8}8,8,71,
2b/6b,{16}3,4,1,,1,,{24}14,25,36,47,,,85,74,63,52,,,
{16}8hb[8:1],,,1hb[8:1]/7hb[8:1],,,2hb[8:1]/4hb[8:1],,,5hb[8:1]/6hb[8:1],,,{4}1b/Cf,
{16}8/2h[8:1],,,8/2h[8:1],,,4/2h[8:1],,,4/2h[8:1],,,{8}35,46,
{16}5/7h[8:1],,,5/7h[8:1],,,8/7h[8:1],,,8/7h[8:1],,,{8}26,26,
{16}5/3h[8:1],,,5/3h[8:1],,,1/3h[8:1],,,7/3h[8:1],,,{8}45,56,
{16}6/7h[8:1],,,6/7h[8:1],,,1/7h[8:1],,,5/7h[8:1],,,{8}46,37,
2b/8b,{16}3,4b,3,,7b/1b,,6,5b,6,,{8}3/4x,2x/5,7b/8b,{16}6,4b,5,,2b/1b,,3,5b,4,,{8}5x/7,4/6x,
{16}2x,4,2,5x,4,5,3x,4,3,6x,4,6,2x,8,2x,8,3b,5,4,7b,5,6,2b,4,3,7b,8,7,
{32}8bx-4[8:1]b,17,26,35,{8}4bx^7p5[8:23],{1}8b^3p1[4:11]/Cf,,,,
Re:MASTER
- 追加しました。修正等ありましたらよろしくお願いします。 -- けもがみ (2024-05-11 14:30:34)
最終更新:2026年04月12日 14:00