アットウィキロゴ

Color My World

アーティスト GOSH/クラシック「悲愴」

BPM EASY BASIC ADVANCED EXPERT MASTER Re:MASTER
94 2 4 7+ 9+ 12 -

EXPERT MASTER Re:MASTER
譜面制作者 譜面-100号 ニャイン -

EASY


BASIC


ADVANCED


EXPERT

(94){2}
,,
,,

1-6[4:1],2-5[4:1],
8-3[4:1],7-4[4:1],
{8}3,,2,,1-4[4:3],8-5[4:3],,,
{1},
{16}
,,7,,,7,,,6-3[4:1],,,,,,1,1,
,,2,,,2,,,{8}3-6[4:1],,,,
,1h[8:11],,,6^3[4:1],,,,
,,3^6[4:1],,,,,,

2-6[4:1],2,,,1-5[4:1],1,,,
8-4[4:1],8,,,7-3[4:1],7,,,
6,,7,,8-5[4:3],1-4[4:3],,,
{1},
{8}
7-3[4:1],7,,,8-4[4:1],8,,,
1-5[4:1],1,,,2-6[4:1],2,,,
,8h[8:3],,,7,6,{16}5,4,,3,
{8}4h[4:3],,,5h[8:3],,,,,

{16}
17,,8,,17,,2,2b/8,,,,,,,,,
28,,1,,28,,7,7b/1,,,,,,,,,
36,,5,,36,,4,4b/5,,,,,,,,,
,,36,,,,36,,,,45,,,45,,,
47,,6,,47,,8,8b/7,,,,,,,,,
25,,3,,25,,1,1b/2,,,,,,,,,
{4}
5,4-7[4:1],3-8[4:1],,
4,5-2[4:1],6-1[4:1],,

,5,,5,
,5,,,
{8}
1-6[4:1],1,,,5-2[4:1],5,,,
8-3[4:1],8,,,4-7[4:1],4,,,
{4}
,4,,4,
,4,,,
{8}
,8h[8:7],,,{6}2b,6b,3b,
{1}
5-8[2:1],
1^4[4:3]/8^5[4:3],
{1},,
E

MASTER

(94){8}
,,1,2,2,3,4^1[4:1],5,
,,8^5[4:1],,,,,,

1-5[4:1],1,,,7-3[4:1],7,,,
5-2[4:1],5,,,1,1,8-5[8:1],,
4-1[8:1],,,,7-4[2:1],8-3[2:1],,,
,,,,,8h[4:1],,,
4,4,,,3^6[4:1],3,,,
1,1,,,7^2[4:1],7,,,
3-7[8:1],4h[2:1],,,8-4[8:1],1h[2:1],,,
8-4[8:1],,1-5[8:1],,2-6[8:1],,,,

8-5[4:1],8,,,2-7[4:1],2,,,
4-1[4:1],4,,,6-3[8:1],6,,,
37,,15,,8-3[2:1]/6,7-4[2:1]/1,,,
,,,,,8h[4:1],,,
4,4,,,3^6[4:1],3,,,
1,1,,,7^2[4:1],7,,,
3-7[8:1],4h[2:1],,,8-4[8:1],1h[2:1],,,
8-4[8:1],8,1-5[8:1],,2-6[8:1],,,,

5^2[16:1]/3,46,,{16}8,18,{8},,,,
1^6[16:1]/7,82,,{16}4,54,{8},,,,
5^2[16:1]/3,46,,{16}8,18,{8},,2-5[8:1],,
4-7[8:1],4b,6-1[8:1],6b,8-3[8:1],8b,,1,
4^7[16:1]/6,53,,{16}1,81,{8},,,,
8^3[16:1]/2,17,,{16}5,45,{8},,,,
4^7[16:1]/6,53,,{16}1,81,,,7,,6,,1,2h[16:5],
,,1,,8,7,,56,,,34,,2,2,,8,

{8}
8-5[4:1],8,,,2-7[4:1],2,,,
4-1[4:1],4,,,6-3[8:1],6,,,
37,,15,,8-3[2:1]/6,7-4[2:1]/1,,,
,,,,,8h[4:1],,,
4,4,,,3^6[4:1],3,,,
1,1,,,7^2[4:1],7,,,
3-7[8:1],4h[8:3],,,{6}1h[6:1],2h[6:1],3h[6:1],
{4}4h[4:3],,,1-5[4:3],
{1},
,,
E

Re:MASTER


名前:
コメント:

タグ:

+ タグ編集
  • タグ:
最終更新:2026年10月04日 18:18