アットウィキロゴ

勦滅

アーティスト siqlo

BPM BASIC ADVANCED EXPERT MASTER Re:MASTER
200 5 7+ 11+ 14 -

EXPERT MASTER Re:MASTER
譜面制作者 はっぴー ロシェ@ペンギン -

BASIC


ADVANCED


EXPERT


MASTER

(200)
{1}3-7-1>5[2:3]/8h[2:7],,{4}E6,E7,E8,E1,E2,C,E6,8-4[8:1],{32}D3,A2,D2,,{8},,
5,,4,4,4,,7,5,6,4,5,3,,25,,,4,,5,5,5,,2,4,3,5,4,6,,
47,,6,56,,3,3,34,,5,5,4,6,5,4,,25,,3,34,,6,6,56,,4,4,5,3,4,5,,
56,7,7,7,18,2,2,2,34,5,5,5,67,8,8h[4:1],,
{16}1,7,1,7,2,6,2,6,3,5,3,5,3,5,3,5,{8}3h[4:1],,1s5[4:1],8,{2}7-3[8:1],

{8}1x,,24,4,14,4,84,4,14,4,24,4,34,4,4x/2x,4x/2hx[8:9],,,5,5,6,6,7,7,
{16}8x,7,6,5,1x,2,3,4,{8}5x/1x,5x/1x,2x/7x,,
C,,1x/8x,1,27,7,36,3,4x/5x,,2x/3x,,67,5x/8x,5x/8x,,
{12}4,4,7,3,3,6,2,2,5,1,1,4,8,1,2,3,4,5,{2}6w2[8:1],
{8}4x/8x,,3,3,,5,6,7,83,83,{16}2,1,2,1,{8}3-6[8:1],8,8,,7,,6,5,,34,34,,
{4}8hx[4:1]/3x-5[8:1],3,{8}8,7,6,5,4-8[8:1],,3/4x,3,,7,6,5,{4}4x/1x,2x/7x,5-1[8:1]/6-1[8:1],,
{12}8h[4:1]/2,,4,4,,,1h[4:1]/7,,5,5,,,2x,8,3,7x,1,5,2x,8,3,7x,4,6,

{16}56,,7,8,7,8,7,8,7,,2,1,2,1,2,1,{4}2,2x/7x,{16}6,5,6,,7b/1b,,,,2x/5x,,
3,4,3,,25,,3,4,3,,25,,1,,78,,78,,6,5,6,,3,4,3,,5,,6,,7x/4x,,
6,5,6,,47,,6,5,6,,47,,3,,27,,8,1,8,1,8,,2,1,2,,38,,7,,5x/6x,,
3,4,3,,25,,3,4,3,,5,,6,,{4}7x/B8/B1/E1,2x/B5/B4/E5,{8}7x,2,18,18,
{16}5h[8:1]/7h[8:1],,,5h[8:1]/7h[8:1],,,4h[8:1]/2h[8:1],,,4h[8:1]/2h[8:1],,,
3h[8:1]/8h[8:1],,,3h[8:1]/8h[8:1],,,6h[8:1]/1h[8:1],,,6h[8:1]/1h[8:1],,,5x/6x,,,3x/4x,,,4x/5x,,
5h[8:1]/7h[8:1],,,4h[8:1]/2h[8:1],,,3h[8:1]/8h[8:1],,,6h[8:1]/1h[8:1],,,
{4}5/8-4[8:1],3hx[2:1],{8}2,2,{32}1x-5[8:1],8x,7x,6x,5x,,,,{4}1x,
E8,E7,E6,E5,E3/B3/B4/E4,E7/B6/B5/E6,{2}1b/3b,

3hx[4:3]/4hx[4:1],{48}A2,A1/B1/D2/E2,A8/B8/D1/E1,A7/B7/D8/E8,A6/B6/D7/E7,,,,,,,,{4},
{2}5hx[4:3]/4hx[4:1],{48}A6,A7/B7/D7/E7,A8/B8/D8/E8,A1/B1/D1/E1,A2/B2/D2/E2,,,,,,,,{8},
4xv3-1[8:3],{2},{12}7,8,6,1,5,2,E6,E3,E7,E4,E8,E5,{2}1b,
{8}8,8,8,8,{64}1hx[1280:1]/6x,B1,C,,,,,,{8},,,{8}2,2,2,2,{64}1hx[1280:1]/3x,B1,C,,,,,,{8},,
7b/8bh[8:3],,,6,5,4b/3b,4/3h[4:1],,1b,1,8,7,6,5,4,3,2,

{1}1h[4:7]/7q8>5[2:3],,6h[4:7]/2p1<4[2:3],,3h[4:7]/5pp1<4[2:3],,5h[4:7]/2>1qq4[2:3],,
{8}6,6,6,6,57,57,57,57,48,48,48,48,31,31,31,,{12}2,,34,34,,56,56,,
1,2,3,4,7,5,6,2,4,3,{2}3-8[8:1]/7-4[8:1],

(150)
{4}1b-3[8:1]/6hx[8:1],1-5[8:1]/4h[8:1],1^3[8:1]/6h[8:1],1pp5[8:3]/8h[8:1],
1/4h[8:1],8h[8:1],{16}7,5,7,5,6pp4[8:3],4,6,4,{8}6,,2-4[8:1],1,2/5-1[8:1],6,45,3,
12,{16}8,8,4,4,6,6,{8}2h[8:1],4h[8:1],5h[8:1],7h[8:1],
8b-4[8:1],,8/6-2[8:1],5,6/4-8[8:1],3,4/2qq5[8:3],1,2/8h[8:1],,
6h[8:1],,{16}6,5,7,5,8qq5[8:3],5,8,5,{8}8,,2-4[8:1],1,2/7-5[8:1],8,7/2-4[8:1],1,
26,7,8-6[8:1],8-2[8:1],8x-5[8:1],8x-3[8:1],8x-4[8:1],8x,8bx,,
17,17,26,26,35,35,{12}4,6,2,8,4,6,8w4[8:1],8,8,8b,,,{16}7,7,4,4,1,1,5,5,8,8,4,4,6,6,3,3,
{6}2hx[12:1]/4hx[12:1],2hx[12:1]/8hx[12:1],5hx[12:1]/6hx[12:1],
{12}7b/8b,6,7b/8b,1,7b/8b,6,{1}4bqq1[2:1]/5bq8[2:1],

(200)
{16}2x/5x,,3,4,3,,25,,3,4,3,,25,,1,,86,,5,,3,4,2,,6,5,7,,8,,1,,
2x/5x,,3,4,3,,25,,3,4,3,,25,,1,,7,8,6,,2,1,3,,7-3[8:1],8,6,,{4}7,
{2}1x-3[8:1]/4x-8[8:1],1-7[8:1]/4h[4:1],1-6[8:1]/3h[4:1],1-5[8:1]/2h[4:1],
{4}2x/6x-3[8:1],6/8-5[8:1],8/2-5[8:1]*-7[8:1],2,{12}6,5,4,3,2,1,{4}8w4[8:1]b,8b,

{8}1x,1,1,{16}1,2,{8}3h[4:1]/5,5,5,{16}5,6,{8}7h[4:1]/1,1,1,{16}1,2,{4}3h[4:1]/5,8-2[8:1]*-6[8:1],
8,{8}1,8,74,6,52,3,58,6,14,3,58,6,{16}7/1-6[8:1],2,3,4,
{4}5x/1x,{16}7,5,7,5,{8}6h[4:1],8<4[4:1],2,2h[4:1],,,{16}2,4,3,4,2,,24,,7,5,6,5,
{8}7b-3[8:1],,78,2b-6[8:1],,21,{4}7b,5,5-1[8:1]b/6-2[8:1]b,5bx/6bx`E6f,,

{16}4x,7,3,8,2,1,3x,4,2,5,1,6,8,7,8,7,1,2,3,4,8,7,6,5,3hx[8:1]/4hx[8:1],,,6hx[8:1]/5hx[8:1],,,1x/8x,,
7x,4,7,4,6,5,6,5,8,3,1,2,8,3,1,2,8,7,6,5,1,2,3,4,{12}7b,7b,7b,4b,4b,4b,
{16}6,5,7,4,8,3,5,4,6,3,7,2,4,3,5,2,6,1,6,1,7,2,7,2,{32}8b,7,6,5,4,3,2,1,8,7,6,5,4,3,2,1,
{8}8b/4x,4,6b/4x,4,2b/4x,4,8b/4x,4,{16}6x,3,7x,1,6x,3,7x,2,6b,2,5b,2,4b,2,3b,2,
{1}8bz4[16:63],,,{8}8,8,,2,1,8-4[8:1]b,7,{32}8x,B8,Cf,{1}B4,,,,E

Re:MASTER


  • 追加しました。修正等ありましたらよろしくお願いします。 -- けもがみ (2024-05-12 04:35:40)
名前:
コメント:

タグ:

+ タグ編集
  • タグ:
最終更新:2026年04月07日 21:25