BASIC
ADVANCED
EXPERT
MASTER
(180)
{4}3h[4:6],,,5h[4:4],
,,,,
6h[8:11],,,4h[8:5],
,,4z8[8:1]/6-2[8:1],,
1hx[4:2],,3>4[4:3],,
,,C,,
{8}24,,6,57,,4,1^4[8:3]/5^8[8:3],,
,,,,
{16}4,8,3,7,2,6,1,5,
{8}2,2,6,4,46,,36,3,
6,5,5-1[8:1]/6,,6,,
28,,37,7,3,5,35,,36,6,
3,4,3/4-8[8:1],,3,,17,,
26,3,45,6,47,6,35,2,
14,2,35,4,56,7,58,7,
{16}4,5,4,5,3,6,3,6,2,7,2,7,1,8,1,8,
2x/7x,,,,56,,3,4,2,,78,,1/6pp5[4:1],,,,
{8}3hb[4:1],,,,24,3,6h[8:1],5h[8:1],
7,4,2h[8:1],4h[8:1],3,5,46,46,3-6-4[4:1]/7
,,,,8,8,7h[8:1],5h[8:1],
6,4,3h[8:1],4h[8:1],2,5,4h[8:1]/6h[8:1],,
2v5[8:1]/8v5[8:1],,2b-4[8:1]/8b-6[8:1],,28,,1,1,
2h[8:1],4h[8:1],3,5,6h[8:1],5h[8:1],7,4,
3h[4:1]/5h[4:1],,,35,2V47[4:1]/6,,7V52[4:1],,
2,,8^5[8:1],8,1^4[8:1],,18,,
3bpp6[4:2]/7bpp2[4:2],,,,,,,,
15,48,37,26,1q5[8:1]/5q1[8:1],,,,
3x/7hx[4:1],,5,4,3v6[8:1]/5h[4:1],,,,
3v8[8:1]/7h[4:1],,,,3-7[8:1]/5h[4:1],,,,
6-8[8:1]/8-4[8:1],,6x/8x,,13,8,57,4,
3h[4:2]/5,6,7,8,1-5[8:1],,,,
4h[4:1]/6h[4:1],,,46,3/7V52[4:1],,2V47[4:1],,
7,,1,8,2^4[4:1]/7,,4^6[4:1],,
{4}6^8[4:1],8^2[4:1],2^5[4:1],5^8[4:1],
8^3[4:1],3^6[4:1],6^1[4:1],1^4[4:1],
4<8[4:1],8>4[4:1],4-8[8:1],8,
{8}7,5,2,4,3h[16:3]/7h[16:3],,2-5[8:1]/6-1[8:1],,
2b/6b,,,,
{10}3h[8:1]/7h[8:1],,3h[8:1]/7h[8:1],,37,
{8},26,1h[4:1]/7-3[16:1],,7,,
{16}2,4,2,4,
{8}3-8[8:1],,7-4[8:1],,
{10}1h[8:1],,1h[8:1],,28,
{8},46,3-7[8:1]/7-3[8:1],,3^1[8:1]/7^5[8:1],,,,
4q8[8:1]/8q4[8:1],,,,
{10}2h[8:1]/6h[8:1],,2h[8:1]/6h[8:1],,26,
{8},37,3/7^4[8:1],,
{10}2h[5:1],,3h[5:1],,4,
{8}2^5[8:1],2,1,,
{10}7h[5:1],,6h[5:1],,5,
{8}46,2,35,7,4/8x,4x/8,4/8x,4x/8,
1-6[8:1]/5-2[8:1],,,,
1-3[8:1]/5-7[8:1],,15,,
48,3,26,5,3h[4:1]/4,,
{16}5,3,5,3,
{8}6^3[8:1],,2-5[8:1],,
{10}8h[8:1],,8h[8:1],,17,
{8},26,2-4[8:1]/6-8[8:1],,2-6[8:1],,,,
8^5[8:1],,,3^8[8:1],,,6^3[8:1],,
,1^6[8:1],,,
4h[4:1],,5,4,
3V57[8:1],,,8V24[8:1],,,5V71[8:1],,
,2V46[8:1],,,8-4[4:17],,,,
,,,,,,,,
,,,,,,,,
A1,,,A2,,,A3,,
,,,,,,,,
2qq3[4:15],,,,
,,,,,,,,,,,,
D5,,,D7,,,D6,,
,,,,,,,,
6p4[4:11],,,,,,,,
,,,,,,,,
D4,,,D3,,,D2,,
{8},,,24,5/7s3[8:1],,,,
1,1,2/4h[4:1],,5h[4:1],,7-3[8:1],,
2h[4:1],,4,5,6,7,8h[4:1],,
1,,34,25,,56,4^1[4:1]/8^5[4:1],,
,,,,
{16}1,5,2,6,3,7,4,8,
{4}5h[4:7],E7,E6,C,E4,E3,E2,E1,
4h[4:7],E3,E4,C,E6,E7,E8,E1,
{8}
3,3,24,5,6,6,57,4,
3,3,5,4,7,7,5<4[4:4],6,
,,,,,,,,
6hx[4:1],,3,2,1-4[8:1]/5v8[8:1],48,Cf,,
{8}3b/7b,2,8,17,6,2,17,6,
4,2^5[8:1]/8,7,6,,
{16}7,5,6,,
{8}1,28,
7,6,35,2,1,78,6,
5,3h[4:1]/4,,1,
{16}28,3,4,5,6,7,8,,
{8}5^8[8:1],4,,2^5[8:1],1,,7^2[8:1],6,
,4^7[8:1],3,2,,
{16}1,8,1,,
{8}27,
6h[4:1],,5,3h[4:1],,4,2/5-8[8:1],,
1-4[8:1]/5x,,1x/7,,
{16}8,7,6,5,3,2,1x,,
{8}7-4[8:1],8,7,2^5[8:1],1,2,7p3[8:1],8,
7,1-5[8:1],8,1,,
{16}7,8,7,,
{8}16,5^8[8:1],
4,3,2-5[8:1],1,8,7^2[8:1],6,5,
4-8[8:1],,4,2,12,7,78,
{8}2-5[8:1],1,2,7^4[8:1],8,7,2q6[8:1],1,
2,8-4[8:1],1,8,,
{16}2,1,2,,
{8}38,4h[4:1]/7h[4:1],,,25,2-5[8:1]/5,,2x/8-3[8:1],,
6-1[8:1]/8x,,4-7[8:1]/6x,,4x/2b,,1-3v2-4z8[4:6]/8-6v7-5s1[4:6],,
,,,,,,,,
,,,,,
{24}1b/8b,2x/7x,3x/6x,4bx/5bx,,,,,,
{8}7-3[8:1],8,1^4[8:1],,1^6[8:1],,1-5[8:1],,
1,,46,7,18,2,3-8[8:1]/5,,
7-4[8:1],6,1-5[8:1],,5w1[8:1],,,,
4x/6x,,2h[8:1],4h[8:1],5h[8:1],7h[8:1],2^5[8:1],,
8h[4:1],,1,8,7^4[8:1],,1h[4:1],,
8,,7h[8:1],5h[8:1],4h[8:1],2h[8:1],C,,
1q5[8:1]/8,,5^2[8:1],,6,,1/7^4[8:1],,
4q8[8:1],,3,2,1,8,37,,
2-6[8:1],1,8^5[8:1],,8^3[8:1],,8-4[8:1],,
8,,35,2,18,7,4h[8:1]/6h[8:1],,
{16}3,4,3,,
{8}25,25,16,16,78,78,
{16}6,5,6,,
{8}47,47,38,38,1h[8:1]/2h[8:1],,
{16}3,4,3,4,1,8,1,8,5,6,5,6,4,5,3,4,
2,1,3,8,4,7,5,6,4,5,3,4,2<3[4:6],,,,
{1}Cf,
E
Re:MASTER
最終更新:2026年06月18日 22:29